<?xml version="1.0" standalone="no"?>
<!DOCTYPE svg PUBLIC "-//W3C//DTD SVG 1.1//EN" "http://www.w3.org/Graphics/SVG/1.1/DTD/svg11.dtd" >
<!--
2013-9-30: Created.
-->
<svg>
<metadata>
Created by iconfont
</metadata>
<defs>

<font id="hs-icon" horiz-adv-x="1024" >
  <font-face
    font-family="hs-icon"
    font-weight="500"
    font-stretch="normal"
    units-per-em="1024"
    ascent="896"
    descent="-128"
  />
    <missing-glyph />
    
    <glyph glyph-name="disable" unicode="&#58884;" d="M509.952 830.4639999999999q92.16 0 174.08-35.328t142.336-96.256 95.744-142.336 35.328-173.568q0-93.184-35.328-174.592t-95.744-142.336-142.336-95.744-174.08-34.816q-93.184 0-174.592 34.816t-142.336 95.744-95.744 142.336-34.816 174.592q0 92.16 34.816 173.568t95.744 142.336 142.336 96.256 174.592 35.328zM506.88 707.5840000000001q-66.56 0-124.928-25.088t-101.888-68.608-68.608-101.888-25.088-124.928q0-51.2 14.336-95.744t40.96-83.456l444.416 443.392q-38.912 26.624-83.968 41.472t-95.232 14.848zM506.88 66.55999999999995q65.536 0 123.904 25.088t101.888 68.608 68.608 101.888 25.088 124.928q0 95.232-50.176 174.08l-443.392-443.392q38.912-24.576 81.92-37.888t92.16-13.312z"  horiz-adv-x="1024" />

    
    <glyph glyph-name="setting" unicode="&#58880;" d="M960.2683 287.67539999999997l-122.2164-39.2294 55.593-111.2105-134.0928-134.4778-110.8695 55.7435-39.1066-122.6107h-189.60384l-39.1076 122.6107-110.8685-55.7435L135.9155 137.2355l55.5776 111.2105-126.7384 39.2294V477.83936l126.7384 39.2305-55.5776 111.2115 134.0805 134.4758 110.8685-55.7425 39.1076 124.8522h189.60384l39.1066-124.8522 110.8695 55.7425 134.0928-134.4758-55.593-111.2115 122.2164-39.2305V287.675392zM515.5871 624.6451c-131.3331 0-237.8138-106.7817-237.8138-238.4978 0-131.7683 106.4806-238.551 237.8138-238.551 131.3311 0 237.8127 106.7827 237.8127 238.551C753.4008 517.8624 646.9181 624.6451 515.5871 624.6451zM515.4918 279.03689999999995c-58.9548 0-106.7418 47.9508-106.7418 107.0561 0 59.1596 47.787 107.0838 106.7418 107.0838 58.9537 0 106.7418-47.9242 106.7418-107.0838C622.2336 326.9878 574.4456 279.03689999999995 515.4918 279.03689999999995z"  horiz-adv-x="1024" />

    
    <glyph glyph-name="sys-set" unicode="&#58881;" d="M858.126525 126.86361799999997L678.538139 304.23839799999996c11.577137 24.299429 17.986367 51.467185 17.986367 79.979566 0 102.947673-83.135779 186.181353-186.182842 186.181353-17.124708 0-33.962878-2.302439-49.750069-6.698562l79.704492-79.408561c33.006047-33.295314 30.518288-88.971357-5.361321-124.754329-35.689266-35.58752-91.657198-38.080294-124.663246-5.361101l-79.506986 79.985706c-4.403467-15.880689-6.700884-32.533974-6.700884-49.944506 0-103.130845 83.429479-186.746218 186.279036-186.746218 28.323206 0 55.77759 6.502088 79.697329 18.176988l178.815758-177.76159c22.866714-22.3838 60.948568-21.044292 85.439335 3.832282C878.691729 66.01271499999996 880.417094 104.47981900000002 858.126525 126.86361799999997L858.126525 126.86361799999997zM809.900222 54.535312999999974c-17.30891 0-31.946882 14.166651-31.946882 31.760354 0 17.034978 14.637972 31.000038 31.946882 31.000038 17.511533 0 31.577453-13.964036 31.577453-31.000038C841.478698 68.70196399999998 827.412778 54.535312999999974 809.900222 54.535312999999974L809.900222 54.535312999999974zM901.177758 466.881662l-18.184896 0-42.376846 0.38067-0.285514 0c-8.508116 0.76134-16.648851 3.820002-23.729396 8.413624-0.475857 0-0.67234 0.201591-0.957854 0.578168-15.024797 9.763364-25.068959 27.171849-24.783445 46.50415 0 6.121418 1.244391 11.661597 3.160099 17.410532 1.719225 6.121418 4.784152 12.048407 8.901082 17.021675l9.371822 9.573029 21.146466 20.85498 12.441867 12.632715c18.082561 23.334451 18.082561 56.827263-0.67234 80.360236l-36.355466 37.311791c-24.205253 18.551518-57.591986 19.134803-81.226211 1.143033l-13.209378-12.619412-29.466286-30.238698 0 0-0.386826 0c-16.070659-13.006222-38.258893-15.500019-56.634132-7.460925-6.319175 2.866281-11.953729 6.495948-17.50437 11.864212-8.711763 9.371438-14.066943 20.669762-15.595825 32.718169l0 13.202697 0 29.655414L594.830309 774.561184c-3.635956 29.65439-27.17501 53.002145-57.502955 56.44864l-51.85612 0c-29.756917-3.261277-53.771827-26.596751-57.984952-56.06797l0-18.176988 0-30.232558 0-12.054547 0 0 0-0.190335c-0.184203-1.529843-0.761371-3.25002-0.857566-4.594645l0-0.571005c-0.474834-1.529843-0.671316-3.063779-0.856542-4.402263-0.577168 0-0.577168-0.577145-0.577168-0.577145-0.571028-1.338485-0.861659-3.445472-1.62303-4.403287l0 0c-0.48302-1.714038-1.440874-3.058662-2.202245-4.581342l0-0.194428c-3.160099-6.510274-7.557426-12.050454-13.495915-16.839527-9.561142-8.229428-22.384717-13.202697-36.158983-13.202697-12.918747 0-24.973788 4.402263-34.257602 12.054547l-9.471087 9.56689-21.047201 20.665669-12.816412 13.012362c-23.539054 17.98563-56.925786 17.98563-80.370692-0.957815l-37.210985-36.736693c-18.762065-23.347754-19.047579-56.834426-1.15536-80.753185l12.822552-12.620435 30.041408-29.858028 0 0c0.577168-0.957815 1.047908-1.720178 1.625077-2.677992 0.380686-0.184195 0.767511-0.957815 1.535022-1.915629 0.380686-0.572028 0.761371-1.714038 1.332399-2.486634 0-0.184195 0.965017-1.143033 0.965017-1.720178 0.571028-0.76748 1.142057-2.100848 1.813373-3.057639 0-0.577145 0.190343-1.149173 0.480974-1.720178 0.572052-0.768503 0.762394-2.113127 1.625077-3.261277 0-0.37453 0.095171-0.956791 0.285514-1.527796 0.191366-1.720178 1.054049-3.065825 1.054049-4.77884l0 0c0.474834-1.732457 0.761371-3.248997 0.761371-4.981455l0 0c2.396681-16.451694-3.154982-33.675984-15.977534-46.307675l0 0c-9.084261-9.18008-20.760663-14.536065-32.815704-15.881712l-13.101926 0-29.667886 0-17.887102 0c-29.750777-4.206812-53.194659-27.929096-56.545101-57.398268l-0.190343-52.242851c3.064928-30.0412 26.407498-53.574173 56.070267-57.595766l18.266764 0 42.287815-0.572028c1.535022-0.184195 3.635956-0.184195 5.07683-0.76134l1.433711 0c1.338539-0.571005 2.10605-0.957815 3.635956-1.14201 22.865691-7.080256 39.414253-28.328185 39.414253-53.579289l0 0c0-12.815887-4.39835-25.258267-12.145096-34.831296l-9.282791-8.983605 0 0-21.337832-20.86112-12.721241-12.632715c-17.798071-23.918759-17.798071-57.207933 0.665176-80.556711l37.022689-37.305651c23.635248-18.754133 56.741584-18.945491 80.751377-0.76134l12.626069 12.619412 30.334085 29.66667 0 0c0 0.37453 0.284491 0.37453 0.671316 0.571005 1.142057 1.149173 2.387471 1.720178 3.25527 2.868327 1.047908 0.196475 1.243368 0.196475 2.004739 0.76748 0.577168 0.37453 1.536046 1.149173 2.297417 1.720178 1.054049 0.572028 2.392588 0.76748 3.445613 1.344624 0.671316 0.37453 1.148197 0.571005 1.338539 0.957815 1.624053 0.185218 2.678102 0.76134 4.783129 1.333368l0 0 0 0c1.81542 0.572028 3.057764 1.344624 4.397327 1.344624l0.48302 0c1.432687 0.38067 2.962593 0.571005 4.592786 0.957815l0.380686 0c1.338539 0 2.677079 0 3.832439 0.572028 15.500654 0.571005 31.185511-4.790096 42.669524-16.654308 9.567282-9.181103 14.540754-21.044292 16.16583-33.099862l-0.191366-13.006222 0-29.471219 0-17.980513c3.636979-30.0412 27.454384-53.579289 57.2113-56.637951l52.333 0c29.948283 3.057639 53.481196 26.406416 57.598126 55.680137l0 17.980513 0.475857 30.612205 0 12.060687 0 0c1.154337 10.900258 5.075807 19.896142 11.104351 27.935236 0.571028 0.963954 1.142057 1.534959 1.713085 2.106987 0.386826 0.191358 0.869846 1.333368 1.731505 1.720178 3.349418 3.635807 7.080546 6.888897 11.187242 9.757225l0 0c1.249508 0.196475 2.492876 1.14201 3.260387 1.726318 0.946597 0.576121 0.946597 0.576121 1.333423 0.576121l0 0c0.577168 0.185218 0.958877 0.185218 1.059165 0.185218 1.046885 0.76748 1.915708 0.76748 3.159076 1.344624l-50.0407 49.937342c-21.718517-6.318916-44.584208-9.376555-68.219456-9.376555-135.379747 0.190335-244.454331 109.824291-243.97131 244.527203 0 135.475508 110.025274 244.920152 245.214678 244.545622 135.000085-0.571005 243.97131-110.213147 243.774827-245.306962-0.089031-22.954805-3.533621-45.731554-9.657336-66.39006l50.417292-49.557696c2.588047 5.925966 6.69372 11.102872 11.286506 16.266475 5.177118 4.963035 12.061181 8.795317 18.368076 11.287067 4.695121 2.100848 9.574445 3.629667 14.263426 4.206812l13.489775 0 29.846971 0 17.708016 0c29.661745 4.016477 53.094371 27.554566 56.443789 57.208956l0 52.81181C953.89656 438.939263 930.64916 462.860069 901.177758 466.881662L901.177758 466.881662zM901.177758 466.881662"  horiz-adv-x="1024" />

    
    <glyph glyph-name="logout" unicode="&#59043;" d="M888.988 403.99l-128 160c-6.192 7.739-15.458 12.012-24.994 12.012-3.54 0-7.115-0.588-10.586-1.806C712.584 569.698 704 557.5899999999999 704 544l0-96L448 448c-35.346 0-64-28.654-64-64 0-35.347 28.654-64 64-64l256 0 0-96c0-13.59 8.584-25.697 21.408-30.196 3.47-1.217 7.047-1.806 10.586-1.806 9.537 0 18.802 4.271 24.994 12.012l128 160C898.338 375.696 898.338 392.303 888.988 403.99zM576 128L384 128l-64 0 0 0.01c-0.168-0.001-0.333-0.01-0.5-0.01-35.071 0-63.5 28.654-63.5 64l0 64L256 512l0 64 0.01 0c-0.001 0.167-0.01 0.333-0.01 0.5 0 35.07 28.653 63.5 64 63.5l64 0 192 0c35.346 0 64 28.653 64 64 0 35.346-28.654 64-64 64L256 768c-70.692 0-128-57.308-128-128l0-512c0-70.691 57.308-128 128-128l320 0c35.346 0 64 28.654 64 64C640 99.34699999999998 611.346 128 576 128z"  horiz-adv-x="1024" />

    
    <glyph glyph-name="tips" unicode="&#58893;" d="M511.358387 831.49487c-246.935042 0-447.113177-200.176089-447.113177-447.113177 0-246.931972 200.178135-447.113177 447.113177-447.113177 246.931972 0 447.113177 200.181205 447.113177 447.113177C958.471564 631.318782 758.290359 831.49487 511.358387 831.49487zM466.441385 591.912283c3.166109 7.968485 10.320043 18.673292 21.456684 32.020274 11.183713 13.296841 23.76424 19.730367 37.877679 19.250436 7.248078-0.479931 13.535271-2.88163 18.911722-7.250124 5.330402-4.368494 10.995425-14.450107 17.090237-30.195719 6.048763-15.793708 8.593725-27.41028 7.633864-34.94693-0.959861-7.538697-10.083659-17.570167-27.269064-30.195719-17.231453-12.625552-30.721699-18.433838-40.420595-17.473977-8.255011 0.479931-15.168468 3.024893-20.735253 7.679913-5.569856 4.561899-10.275018 11.618619-14.163581 21.077038-3.888564 9.456373-5.569856 17.090237-5.086855 22.943548C461.736223 578.181561 463.271182 583.896726 466.441385 591.912283zM619.277282 210.67648899999995c-3.657296-9.953699-11.155061-19.071358-22.995737-27.972075-9.233292-6.931876-18.23634-13.360286-26.934442-19.354813-9.603729-6.531763-20.091594-12.392238-31.246655-17.419741-11.104919-5.091972-24.331151-9.901511-40.36329-14.677281-12.926404-3.841491-23.680329-5.694699-32.915667-5.694699-3.672646 0-7.04751 0.299829-10.104125 0.850367-11.220552 1.61887-21.390169 6.379291-29.624714 14.026458-7.514137 6.947226-13.542434 16.282848-17.883299 27.724435-3.943822 10.301623-6.41306 21.793352-7.350408 34.100656-1.000793 12.658298 0.686638 26.736944 5.16258 42.986023l17.333784 47.577598 21.527292 68.954465c7.598049 21.47715 9.700943 32.413224 10.169617 37.907355 1.235131 14.763239 2.90619 20.50808 5.060249 24.583908 2.203178 4.225231 6.39464 9.084912 21.242813 21.192671 14.945387 12.239765 18.336624 14.427594 20.524452 15.614629 2.119267 1.200338 7.547907 3.472078 16.098653 6.463202 8.198729 2.854001 15.33015 4.256954 21.774933 4.256954 13.210883-0.835018 21.626553-6.028297 26.420743-14.679327 8.816806-16.048511-6.481621-32.747845-13.010315-39.879266-6.897084-7.429203-12.139481-14.277168-15.629979-20.455891-3.806699-6.681166-9.051143-17.886369-15.581883-33.350572-6.628978-15.648398-12.373819-30.562063-17.248849-44.839231-4.859681-14.295588-9.93835-31.196513-15.148002-50.65161-5.060249-19.002796-8.232498-34.284851-9.417487-45.423539-0.802272-7.598049-0.01842-13.510712 2.237971-16.664541 0.766456-1.103124 2.88777-4.059456 10.420327-4.959965 5.393847-0.284479 10.370185 0.534166 16.59905 1.685385 9.001001 1.653663 17.819854 3.990894 26.167986 6.947226 7.93267 2.772136 15.298428 6.312776 21.945825 10.520611l24.26259 16.383132c15.148002 7.432273 19.992333 8.600889 24.417109 8.600889l3.806699 0 8.28264-3.691065 2.638083-3.806699C625.840768 228.946598 622.352317 219.22723599999995 619.277282 210.67648899999995z"  horiz-adv-x="1024" />

    
    <glyph glyph-name="more" unicode="&#58916;" d="M417.696 672c0 52.928 43.072 96 96 96s96-43.072 96-96-43.072-96-96-96S417.696 619.072 417.696 672zM417.696 384c0 52.928 43.072 96 96 96s96-43.072 96-96-43.072-96-96-96S417.696 331.072 417.696 384zM417.696 96c0 52.928 43.072 96 96 96s96-43.072 96-96-43.072-96-96-96S417.696 43.072 417.696 96z"  horiz-adv-x="1024" />

    
    <glyph glyph-name="refresh" unicode="&#58967;" d="M915.372465 509.939317L873.426121 509.939317l-23.104207 0L733.604632 509.939317c-23.158443 0-41.946344 18.788925-41.946344 41.946344s18.787902 41.946344 41.946344 41.946344l72.231091 0c-65.676815 92.904946-173.466774 153.803945-295.948339 153.803945-200.774723 0-363.535667-162.760944-363.535667-363.53669 0-23.157419-18.787902-41.945321-41.946344-41.945321-23.157419 0-41.946344 18.786878-41.946344 41.945321l0 0c0 247.119237 200.312188 447.430402 447.429379 447.430402 150.063761 0 282.486746-74.088392 363.538737-187.502441l0 75.645864c0 23.157419 18.787902 41.946344 41.946344 41.946344s41.946344-18.788925 41.946344-41.946344l0-167.786401C957.319833 528.728242 938.530908 509.939317 915.372465 509.939317zM104.405373 258.261251l181.767833 0c23.158443 0 41.946344-18.788925 41.946344-41.947368s-18.787902-41.945321-41.946344-41.945321l-72.804143 0c65.733097-93.01444 173.930331-153.804968 296.519344-153.804968 200.777793 0 363.538737 162.760944 363.538737 363.535667 0 23.158443 18.787902 41.947368 41.946344 41.947368s41.946344-18.788925 41.946344-41.947368l0 0c0-247.088538-200.337771-447.429379-447.431425-447.429379-150.253072 0-282.592147 74.389244-363.535667 188.131775l0-76.273151c0-23.158443-18.787902-41.947368-41.946344-41.947368-23.157419 0-41.946344 18.788925-41.946344 41.947368L62.460052 216.31388300000003C62.459029 239.47232599999995 81.246931 258.261251 104.405373 258.261251z"  horiz-adv-x="1024" />

    
    <glyph glyph-name="circle-del" unicode="&#59213;" d="M512 768C409.408 768 313.024 728 240.512 655.488S128 486.592 128 384c0-102.656 39.936-198.976 112.448-271.488C313.024 39.936000000000035 409.408 0 512 0c102.656 0 198.976 39.936 271.488 112.512C856.064 184.96000000000004 896 281.34400000000005 896 384c0 102.592-39.936 198.976-112.512 271.488C711.04 728 614.656 768 512 768zM512 832L512 832c247.424 0 448-200.576 448-448s-200.576-448-448-448-448 200.576-448 448S264.576 832 512 832zM715.648 225.60000000000002l-45.248-45.248L308.352 542.4l45.248 45.248L715.648 225.60000000000002zM353.6 180.35199999999998l-45.248 45.248 361.984 361.984 45.248-45.248L353.6 180.35199999999998z"  horiz-adv-x="1024" />

    
    <glyph glyph-name="upgrade" unicode="&#59121;" d="M810.666 148.61900000000003c-4.85 0-9.455 0.885-14.222 1.206l0 57.117c4.759-0.436 9.349-1.434 14.222-1.434 86.403 0 156.445 70.044 156.445 156.445 0 86.403-70.042 156.445-156.445 156.445-5.337 0-10.379-1.049-15.579-1.57C781.533 661.306 660.021 774.398 512 774.398s-269.534-113.092-283.087-257.57c-5.2 0.52-10.242 1.57-15.579 1.57-86.403 0-156.445-70.042-156.445-156.445 0-86.399 70.042-156.445 156.445-156.445 14.897 0 29.02 2.748 42.666 6.636l0-58.743c-13.83-2.847-27.984-4.782-42.666-4.782C95.514 148.61900000000003 0 244.13300000000004 0 361.953 0 468.81 78.649 557.056 181.166 572.604 218.172 721.1030000000001 352.043 831.287 512 831.287s293.831-110.182 330.834-258.683C945.351 557.056 1024 468.81 1024 361.953 1024 244.13300000000004 928.489 148.61900000000003 810.666 148.61900000000003zM352.819 150.346c5.556 5.552 14.561 5.552 20.113 0l110.623-110.623L483.555 333.509c0 7.854 6.369 14.222 14.222 14.222l28.445 0c7.854 0 14.222-6.369 14.222-14.222l0-293.786 110.623 110.623c5.556 5.552 14.558 5.552 20.113 0l20.113-20.116c5.556-5.552 5.556-14.558 0-20.113L522.058-59.120000000000005c-5.556-5.556-14.561-5.556-20.113 0l-20.116 20.113c0 0 0 0 0 0.002L332.706 110.11699999999996c-5.556 5.556-5.556 14.561 0 20.113L352.819 150.346z"  horiz-adv-x="1024" />

    
    <glyph glyph-name="lang" unicode="&#58964;" d="M848.805886 90.42777799999999c70.998007 81.260745 109.779266 184.217628 109.779266 293.14448 0 119.204939-46.421262 231.277434-130.713041 315.569212C744.876861 782.137743 634.94103 828.38402 517.788843 829.786972c-1.924839 0.599657-10.290367 0.592494-12.227486-0.01535C388.878868 828.054515 279.434224 781.840984 196.73471 699.14147 113.863281 616.269018 67.630307 506.539894 66.095347 389.584182c-0.428765-1.64957-0.436952-8.601912-0.021489-10.226922 1.082658-117.628024 47.364751-228.058113 130.660852-311.354214 84.291778-84.291778 196.36325-130.713041 315.569212-130.713041 119.204939 0 231.277434 46.421262 315.569212 130.713041 6.139837 6.139837 12.054547 12.444427 17.789155 18.871813 0.50756 0.453325 1.001817 0.928139 1.471514 1.440815C847.750857 88.98798599999998 848.295256 89.70020699999998 848.805886 90.42777799999999zM107.447151 363.956501l187.501418 0c1.322112-65.678862 9.253758-127.264499 22.505573-182.112688-61.690014-16.687054-100.819197-38.371936-121.076566-51.906184C144.30971 194.66379400000005 111.676475 275.64313000000004 107.447151 363.956501zM195.881272 636.5918790000001c20.090571-13.556761 59.242266-35.461653 121.340579-52.260248-12.998035-54.127781-20.827351-114.778116-22.243607-179.432649L107.525945 404.898982C112.076588 492.268866 144.437623 572.387601 195.881272 636.5918790000001zM917.081898 404.900006L729.628576 404.900006c-1.415232 64.630996-9.240455 125.260865-22.229281 179.37432 61.95505 16.693194 101.235682 38.444591 121.56673 52.020794C880.270505 572.1399610000001 912.537396 492.133789 917.081898 404.900006zM688.677908 404.900006L532.167319 404.900006 532.167319 560.938851c52.209082 1.094938 97.103572 6.453992 135.272893 14.033621C680.000272 522.836045 687.286212 465.103156 688.677908 404.900006zM532.167319 601.884402L532.167319 786.081565c36.84107-10.398838 72.779583-49.205679 100.926644-110.015649 8.810666-19.035542 16.645099-39.641859 23.464411-61.521169C621.531626 607.772506 580.261687 602.9373840000001 532.167319 601.884402zM491.223814 785.726477l0-183.805236c-47.504944 1.12666-88.378863 6.001691-123.120109 12.802584 6.807033 21.812795 14.623046 42.35976 23.409153 61.344137C419.351903 736.207667 454.809463 774.824173 491.223814 785.726477zM491.223814 560.9593179999999l0-156.059312L335.928912 404.900006c1.391696 60.213383 8.679683 117.955482 21.243837 170.099073C395.008472 567.463452 439.487499 562.112584 491.223814 560.9593179999999zM335.893096 363.956501l155.330718 0 0-158.667719c-51.609425-1.194198-96.019891-6.563486-133.821845-14.103206C344.576873 244.072087 337.193719 302.75665100000003 335.893096 363.956501zM491.223814 164.32788200000005l0-182.909843c-36.415374 10.902304-71.871911 49.51881-99.709933 109.659539-8.679683 18.752086-16.409738 39.034015-23.157419 60.551074C402.9964 158.35484299999996 443.773106 163.17973199999994 491.223814 164.32788200000005zM532.167319-18.937049000000002L532.167319 164.39132700000005c47.904033-1.025353 89.103364-5.862521 124.116809-12.656251-6.755868-21.555945-14.497179-41.87369-23.190165-60.656475C604.946902 30.26863000000003 569.008388-8.538211000000047 532.167319-18.937049000000002zM532.167319 205.33994800000005L532.167319 363.956501l156.546406 0c-1.298576-61.096497-8.66024-119.68487-21.445428-172.502819C629.154233 198.98623899999996 584.319096 204.28901199999996 532.167319 205.33994800000005zM729.659275 363.956501l187.501418 0c-4.221138-88.138386-36.732599-168.973436-88.620363-233.635131-20.469194 13.668301-59.635215 35.298947-121.30374 51.868321C720.43724 236.95089900000005 728.33921 298.414763 729.659275 363.956501zM801.518906 667.257296c-18.329461-11.570523-52.309366-29.355585-104.858186-43.493583-19.295462 63.056128-46.110177 115.004267-78.06189 150.97655C689.00025 755.5890870000001 751.833297 717.902766 801.518906 667.257296zM406.007991 774.740262c-31.905664-35.920094-58.690704-87.768973-77.979002-150.702304-52.40351 14.241352-86.370113 32.099069-104.581893 43.587728C273.076422 718.0859379999999 335.777463 755.635135 406.007991 774.740262zM223.917816 99.03685299999995c18.284435 11.535731 52.098565 29.230742 104.332207 43.335994 19.271926-62.60485 45.976124-114.186645 77.757968-149.968593C335.99952 11.449006000000054 273.472442 48.818100999999956 223.917816 99.03685299999995zM618.59883-7.595745999999963c31.801287 35.803437 58.517765 87.426165 77.792761 150.08218 51.984978-14.023388 85.972047-31.631418 104.533798-43.208081C751.3329 48.938851 688.718841 11.478681000000051 618.59883-7.595745999999963z"  horiz-adv-x="1024" />

    
    <glyph glyph-name="gou" unicode="&#59041;" d="M0 334.451613 165.16129 499.612903 495.483871 169.290323C495.483871 169.290323 682.677677 568.419097 1420.387097 896L1420.387097 763.870968C1420.387097 763.870968 1112.097032 736.355097 495.483871-128L0 334.451613Z"  horiz-adv-x="1421" />

    
    <glyph glyph-name="add" unicode="&#58932;" d="M743.819043 414.70069l-201.120399 0L542.698644 615.820066c0 16.95412-13.745035 30.699155-30.699155 30.699155s-30.699155-13.745035-30.699155-30.699155l0-201.119376L280.177887 414.70069c-16.95412 0-30.699155-13.745035-30.699155-30.699155 0-16.952074 13.745035-30.699155 30.699155-30.699155l201.122446 0 0-201.123469c0-16.952074 13.745035-30.699155 30.699155-30.699155s30.699155 13.747082 30.699155 30.699155L542.698644 353.30237999999997l201.120399 0c16.95412 0 30.699155 13.747082 30.699155 30.699155C774.518198 400.955655 760.773163 414.70069 743.819043 414.70069zM937.700581 563.849466c-23.272006 55.023119-56.58059 104.429316-99.002729 146.850433-42.421116 42.421116-91.828337 75.730723-146.849409 99.002729C634.868764 833.801465 574.359706 846.021775 511.999488 846.021775c-62.359194 0-122.869276-12.21724-179.848955-36.319147-55.021073-23.272006-104.428293-56.581613-146.849409-99.002729s-75.730723-91.827313-99.002729-146.850433C62.198535 506.869787 49.978225 446.360729 49.978225 383.99948800000004c0-62.358171 12.219287-122.866206 36.320171-179.847931 23.272006-55.021073 56.58059-104.429316 99.002729-146.850433s91.828337-75.730723 146.849409-99.002729c56.979679-24.09986 117.48976-36.319147 179.848955-36.319147 62.359194 0 122.869276 12.219287 179.848955 36.319147 55.022096 23.272006 104.428293 56.581613 146.849409 99.002729 42.422139 42.421116 75.730723 91.82936 99.002729 146.850433 24.09986 56.981725 36.320171 117.48976 36.320171 179.847931C974.020752 446.358682 961.800442 506.869787 937.700581 563.849466zM511.999488-16.62244099999998c-220.903958 0-400.622953 179.717971-400.622953 400.62193 0 220.906005 179.718995 400.623976 400.622953 400.623976 220.904982 0 400.623976-179.717971 400.623976-400.623976C912.622441 163.09553000000005 732.903447-16.62244099999998 511.999488-16.62244099999998z"  horiz-adv-x="1024" />

    
    <glyph glyph-name="menu" unicode="&#58882;" d="M127.9994 137.566826c-33.998349 0-64.417725-28.629589-64.417725-62.627339 0-33.998949 30.419376-64.418125 64.417725-64.418125 33.997949 0 62.627938 30.419376 62.627938 64.418125C190.627139 108.93743600000005 161.99715 137.566826 127.9994 137.566826zM127.9994 445.352947c-33.998349 0-64.417725-28.629989-64.417725-62.627938 0-34.006943 30.419376-62.642329 64.417725-62.642329 33.997949 0 62.627938 28.635585 62.627938 62.642329C190.627139 416.722958 161.99715 445.352947 127.9994 445.352947zM357.038912 633.237561l542.180602 0c32.209162 0 59.049764 25.051015 59.049764 57.259578 0 32.209162-26.840602 59.049764-59.049764 59.049764L357.038912 749.5469029999999c-32.208563 0-59.049365-26.840802-59.049365-59.049764C297.989747 658.288376 324.830349 633.237561 357.038912 633.237561zM127.9994 754.914664c-33.998349 0-64.417725-30.419376-64.417725-64.417725 0-33.997949 30.419376-62.627938 64.417725-62.627938 33.997949 0 62.627938 28.629989 62.627938 62.627938C190.627139 724.495488 161.99715 754.914664 127.9994 754.914664zM899.219513 441.774373L357.038912 441.774373c-32.208563 0-59.049365-26.840802-59.049365-59.049365 0-32.216157 26.840802-59.062755 59.049365-59.062755l542.180602 0c32.209162 0 59.049764 26.846598 59.049764 59.062755C958.269277 414.933571 931.428675 441.774373 899.219513 441.774373zM899.219513 133.988252L357.038912 133.988252c-32.208563 0-59.049365-26.840802-59.049365-59.048765 0-32.209162 26.840802-59.049764 59.049365-59.049764l542.180602 0c32.209162 0 59.049764 26.840602 59.049764 59.049764C958.269277 107.14745000000005 931.428675 133.988252 899.219513 133.988252z"  horiz-adv-x="1024" />

    
    <glyph glyph-name="czbdlb" unicode="&#59242;" d="M96.256 259.96799999999996l192 0c17.664 0 32 14.336 32 32s-14.336 32-32 32l-192 0c-17.664 0-32-14.336-32-32S78.592 259.96799999999996 96.256 259.96799999999996zM1015.04-7.423999999999978l-110.208 110.208c34.112 43.52 55.36 97.6 55.36 157.248 0 141.376-114.624 256-256 256s-256-114.624-256-256 114.624-256 256-256c59.648 0 113.728 21.248 157.248 55.36l110.208-110.208c12.032-11.968 31.36-11.968 43.392 0C1027.008-38.78399999999999 1027.008-19.456000000000017 1015.04-7.423999999999978zM841.408 125.952c-0.576-0.512-1.344-0.704-1.856-1.28s-0.768-1.344-1.28-1.856c-34.624-33.792-81.792-54.784-134.08-54.784-106.048 0-192 85.952-192 192s85.952 192 192 192 192-85.952 192-192C896.256 207.74400000000003 875.264 160.57600000000002 841.408 125.952zM96.256 643.968l576 0c17.664 0 32 14.336 32 32s-14.336 32-32 32l-576 0c-17.664 0-32-14.336-32-32S78.592 643.968 96.256 643.968zM352.256 515.9680000000001l-256 0c-17.664 0-32-14.336-32-32s14.336-32 32-32l256 0c17.664 0 32 14.336 32 32S369.92 515.9680000000001 352.256 515.9680000000001zM352.256 131.96799999999996l-256 0c-17.664 0-32-14.336-32-32s14.336-32 32-32l256 0c17.664 0 32 14.336 32 32S369.92 131.96799999999996 352.256 131.96799999999996z"  horiz-adv-x="1025" />

    
    <glyph glyph-name="ai-home" unicode="&#58897;" d="M592.795-46.076v255.69h-160.738v-256.373c-5.023-0.259-9.031-0.648-13.039-0.648-75.895 0-151.828-0.041-227.728 0-26.080 0-43.617 16.728-43.733 44.431-0.527 105.2-0.366 210.487 0.117 315.687 0 5.547 4.214 12.642 8.466 16.428 68.686 60.686 137.734 120.984 206.665 181.33 45.884 40.169 91.729 80.341 137.612 120.468 3.565 3.098 7.213 6.106 11.704 9.939 27.378-23.917 54.633-47.699 81.849-71.526 89.783-78.581 179.449-157.332 269.476-235.612 9.679-8.384 13.81-16.899 13.728-30.446-0.566-99.872-0.406-199.778-0.201-299.603 0.038-18.152-4.214-33.937-19.321-43.959-5.468-3.649-12.392-6.794-18.668-6.836-80.552-0.43-161.103-0.211-241.61-0.17-1.175-0.002-2.396 0.558-4.579 1.199v0zM713.764 661.814c0 42.193-0.040 81.158 0 120.085 0.038 24.858 5.627 30.793 28.995 30.835 36.287 0 72.574 0.041 108.861-0.042 18.711-0.047 25.187-7.053 25.231-28.086 0.084-83.307 0.282-166.664-0.245-249.971-0.082-12.86 3.322-21.115 12.834-29.287 39.775-33.979 78.772-68.901 117.975-103.61 19.233-17.034 19.721-25.33 3.521-45.591-9.797-12.3-19.394-24.816-29.279-37.075-12.148-15.179-22.193-16.126-36.731-3.221-139.192 123.352-278.385 246.788-417.621 370.181-4.819 4.257-9.758 8.432-15.392 13.337-31.303-27.703-62.366-55.1-93.348-82.58-112.988-100.131-225.979-200.296-338.97-300.42-15.308-13.59-24.821-12.777-37.7 3.225-10.657 13.29-21.262 26.667-31.751 40.080-12.232 15.657-11.743 25.766 3.037 38.967 63.054 56.042 126.275 111.871 189.451 167.782 84.194 74.537 168.471 148.983 252.627 223.648 38.188 33.85 75.367 33.85 113.639-0.258 45.235-40.298 90.597-80.43 135.91-120.598 2.151-1.897 4.418-3.657 8.954-7.402v0zM713.764 661.814z"  horiz-adv-x="1024" />

    
    <glyph glyph-name="clear" unicode="&#58960;" d="M884.736 457.728c0 40.96-32.768 73.728-73.728 73.728h-147.456v290.816c0 40.96-32.768 73.728-73.728 73.728-40.96 0-73.728-32.768-73.728-73.728v-290.816h-139.264c-40.96 0-73.728-32.768-73.728-73.728v-73.728h585.728l0 73.728zM884.736 310.272c-12.288 0-585.728 0-585.728 0s-40.96-434.176-217.088-434.176h208.896c81.92 0 118.784 237.568 118.784 237.568s36.864-212.992 4.096-237.568h114.688c-4.096 0 0 0 12.288 0 57.344 8.192 65.536 270.336 65.536 270.336s57.344-266.24 49.152-266.24c-28.672 0-86.016 0-114.688 0 0 0 0 0 0 0h167.936c-8.192 0 0 0 12.288 0 53.248 12.288 57.344 204.8 57.344 204.8s24.576-204.8 16.384-204.8c-20.48 0-53.248 0-73.728 0 0 0-4.096 0-4.096 0h98.304c147.456-4.096 155.648 200.704 69.632 430.080z"  horiz-adv-x="1024" />

    
    <glyph glyph-name="disable2" unicode="&#59096;" d="M512-64C759.423565-64 960 136.57643499999995 960 384 960 631.4235679999999 759.423565 832 512 832 264.576432 832 64 631.4235679999999 64 384 64 136.57643499999995 264.576432-64 512-64L512-64 512-64ZM512 0C299.922656 0 128 171.92265599999996 128 384 128 596.077344 299.922656 768 512 768 724.077344 768 896 596.077344 896 384 896 171.92265599999996 724.077344 0 512 0L512 0 512 0ZM196.653833 652.372583L784.966675 64.05974400000002 830.22151 109.314573 241.908667 697.627417 196.653833 652.372583 196.653833 652.372583 196.653833 652.372583 196.653833 652.372583Z"  horiz-adv-x="1024" />

    
    <glyph glyph-name="enable" unicode="&#58962;" d="M682.625052 519.438669L462.387046 301.86944500000004l-104.672968 107.099227c-12.726859 13.07683-33.758871 13.320377-46.809095 0.539282-13.104459-12.781094-13.373589-33.758871-0.539282-46.862307l127.915321-130.935098c6.148024-6.309706 14.560624-9.895371 23.404036-9.976212 0.054235 0 0.161682 0 0.26913 0 8.735965 0 17.095353 3.451612 23.296589 9.572006l243.966431 241.000889c12.995989 12.861936 13.158694 33.839713 0.26913 46.862307C716.599841 532.21874 695.622064 532.3272099999999 682.625052 519.438669zM828.282456 700.282456C743.778854 784.759453 631.448486 831.298396 512 831.298396s-231.778854-46.538943-316.282456-131.015939c-174.400029-174.400029-174.400029-458.164884 0-632.564913 84.503603-84.476997 196.833971-131.015939 316.282456-131.015939s231.778854 46.538943 316.282456 131.015939C1002.682485 242.117572 1002.682485 525.882428 828.282456 700.282456zM781.473361 114.57985099999996c-71.992661-71.966055-167.713746-111.601774-269.474384-111.601774s-197.4807 39.636742-269.474384 111.601774c-71.938426 71.966055-111.575168 167.632905-111.575168 269.420149s39.636742 197.454094 111.575168 269.420149c71.992661 71.966055 167.713746 111.601774 269.474384 111.601774s197.481723-39.636742 269.474384-111.601774c71.938426-71.966055 111.575168-167.632905 111.575168-269.420149S853.41281 186.54590599999995 781.473361 114.57985099999996z"  horiz-adv-x="1024" />

    
    <glyph glyph-name="lock" unicode="&#58918;" d="M787.16806-56.268282L236.83194-56.268282c-30.395264 0-55.033407 24.638143-55.033407 55.033407L181.798533 466.550111c0 30.395264 24.638143 55.033407 55.033407 55.033407l82.550111 0 0 110.066815c0 106.379842 86.238107 192.617949 192.617949 192.617949s192.617949-86.238107 192.617949-192.617949l0-110.066815 82.550111 0c30.395264 0 55.033407-24.638143 55.033407-55.033407l0-467.784986C842.201467-31.630138999999986 817.562301-56.268282 787.16806-56.268282zM484.483296 223.953887l0-115.121947 55.033407 0 0 115.121947c31.990598 11.373025 55.033407 41.605583 55.033407 77.496002 0 45.592384-36.957727 82.550111-82.550111 82.550111s-82.550111-36.957727-82.550111-82.550111C429.449889 265.55947100000003 452.491675 235.326912 484.483296 223.953887zM622.066815 631.6513560000001c0 60.787458-49.279357 110.066815-110.066815 110.066815s-110.066815-49.279357-110.066815-110.066815l0-110.066815 220.134653 0L622.067838 631.6513560000001z"  horiz-adv-x="1024" />

    
    <glyph glyph-name="success" unicode="&#59120;" d="M511.706311 895.939625c-282.59624 0-511.684822-229.089605-511.684822-511.684822s229.088582-511.684822 511.684822-511.684822 511.684822 229.088582 511.684822 511.684822S794.301528 895.939625 511.706311 895.939625zM828.294736 67.666378c-41.138956-41.138956-89.026616-73.430406-142.333706-95.976912-55.156204-23.329335-113.784486-35.157731-174.254719-35.157731s-119.098515 11.828396-174.254719 35.157731c-53.30709 22.546505-101.19475 54.837956-142.333706 95.976912-41.138956 41.138956-73.430406 89.026616-95.976912 142.333706-23.329335 55.156204-35.157731 113.784486-35.157731 174.254719s11.828396 119.098515 35.157731 174.254719c22.546505 53.30709 54.837956 101.19475 95.976912 142.333706 41.138956 41.138956 89.026616 73.430406 142.333706 95.976912 55.156204 23.329335 113.784486 35.157731 174.254719 35.157731s119.098515-11.828396 174.254719-35.157731c53.30709-22.547529 101.19475-54.837956 142.333706-95.976912 41.138956-41.138956 73.430406-89.026616 95.976912-142.333706 23.329335-55.156204 35.157731-113.784486 35.157731-174.254719s-11.828396-119.098515-35.157731-174.254719C901.725142 156.692994 869.433692 108.804311 828.294736 67.666378zM722.321146 557.403329 447.74558 282.826739 301.090453 429.481867c-24.977881 24.977881-65.475224 24.977881-90.454128 0-24.978904-24.977881-24.978904-65.476247 0-90.454128l191.882192-191.882192c12.489452-12.488429 28.858258-18.733667 45.227064-18.733667s32.737612 6.245238 45.227064 18.733667l319.803653 319.803653c24.977881 24.977881 24.977881 65.475224 0 90.454128C787.79637 582.38121 747.300051 582.38121 722.321146 557.403329z"  horiz-adv-x="1024" />

    
    <glyph glyph-name="cha" unicode="&#59030;" d="M99.318006 875.769236 18.076704 807.854451c144.82034-107.410312 279.840476-230.879368 398.181745-354.660532-181.619454-182.240601-323.855946-361.460402-398.802892-433.502182l154.767899-128.969327c54.888098 112.852254 174.461427 284.660248 334.417489 464.250486C666.783249 174.275441 786.609335 1.912815 841.922105-111.861438c0 0 150.816914 159.577438 164.280554 134.886083C947.984722 88.214367 806.553573 277.741931 615.85023 471.894839 725.05849 583.63783 847.604524 694.207088 978.476177 791.379221l-35.612079 66.242703C794.390555 784.095327 653.387148 675.003723 526.516622 558.886099 398.481573 679.452036 253.591649 794.898371 99.318006 875.769236L99.318006 875.769236zM99.318006 875.769236"  horiz-adv-x="1024" />

    
    <glyph glyph-name="home" unicode="&#58966;" d="M524.151058 778.413733c-7.124056-5.839457-16.865341-5.887489-24.013924-0.14614l414.68321-333.106587c11.860822-9.527697 29.198307-7.636056 38.726004 4.224766 9.527697 11.860822 7.636056 29.198307-4.224766 38.726004L534.638371 821.218363c-13.164838 10.57418-32.38681 10.479138-45.411641-0.197238L74.466874 481.054148c-11.76578-9.6442-13.485733-27.00008-3.841533-38.76586 9.6442-11.76578 27.00008-13.485733 38.76586-3.841533L524.151058 778.413733zM949.321581 336.61087399999997l-414.68321 333.106587c-13.164838 10.57418-32.38681 10.479138-45.411641-0.197238L74.466874 329.55324599999994c-11.76578-9.6442-13.485733-27.00008-3.841533-38.76586 9.6442-11.76578 27.00008-13.485733 38.76586-3.841533l58.288287 47.777469 0-315.732311c0-45.630339 37.014228-82.607776 82.660918-82.607776L422.476647-63.616765999999984l27.545804 0 0 27.545804 0 188.356727c0 7.615617 6.163417 13.783122 13.756551 13.783122l96.443018 0c7.5962 0 13.756551-6.164439 13.756551-13.783122l0-188.356727L573.978571-63.616765999999984 601.523353-63.616765999999984l172.13624 0c45.671218 0 82.660918 36.969261 82.660918 82.607776L856.320511 340.65271099999995l58.499832-46.991585c11.860822-9.527697 29.198307-7.636056 38.726004 4.224766C963.073022 309.74569299999996 961.182403 327.0842 949.321581 336.61087399999997zM801.228902 18.99100999999996c0-15.205685-12.317637-27.516168-27.569309-27.516168L629.069158-8.525158000000033 629.069158 152.28576399999997c0 38.035162-30.816064 68.873709-68.847138 68.873709l-96.443018 0c-38.026986 0-68.847138-30.840591-68.847138-68.873709l0-160.810922L250.340407-8.525158000000033c-15.232255 0-27.569309 12.32479-27.569309 27.516168L222.771098 379.880495l289.404679 237.216447 289.054148-232.190467L801.229924 18.99100999999996z"  horiz-adv-x="1024" />

    
    <glyph glyph-name="sys-menu" unicode="&#59016;" d="M478.102229 158.57014400000003c0-104.881693-85.015246-189.889772-189.888749-189.889772s-189.893868 85.008079-189.893868 189.889772c0 104.873502 85.020366 189.889772 189.893868 189.889772h189.888749v-189.889772z m68.011582 0.625594c0-104.870431 85.018318-189.893868 189.892844-189.893868s189.886701 85.023437 189.886701 189.893868c0 104.873502-85.012175 189.885677-189.886701 189.885677H546.113811v-189.885677z m-68.264482 449.992481c0 104.879645-85.006031 189.893868-189.883629 189.893868-104.873502 0-189.89182-85.014222-189.89182-189.893868 0-104.873502 85.018318-189.885677 189.89182-189.885677h189.882605V609.188219h0.001024z m68.017726-0.596925c0 104.874526 85.011151 189.884653 189.895916 189.884653 104.866335 0 189.885677-85.014222 189.885676-189.884653 0-104.874526-85.019342-189.890796-189.885676-189.890796H545.867055V608.5912940000001z"  horiz-adv-x="1024" />

    
    <glyph glyph-name="error" unicode="&#58984;" d="M511.999878-127.999269a510.219583 510.219583 0 0 0-362.056712 149.942679A510.292726 510.292726 0 0 0 0.000488 384.000122 510.268345 510.268345 0 0 0 149.943166 746.056834 510.268345 510.268345 0 0 0 511.999878 895.999512a510.268345 510.268345 0 0 0 362.056712-149.942678A510.292726 510.292726 0 0 0 1023.999269 384.000122a510.268345 510.268345 0 0 0-149.942679-362.056712A510.268345 510.268345 0 0 0 511.999878-127.999269z m0 976.992361C255.610088 848.993092 47.006908 640.414293 47.006908 384.000122S255.610088-80.992848 511.999878-80.992848c256.414171 0 464.99297 208.578799 464.99297 464.99297S768.414049 848.993092 511.999878 848.993092z m-56.393076-123.976995h112.786152V210.407948h-112.786152V725.016097z m0-569.245799h112.786152v-112.786151h-112.786152v112.786151z"  horiz-adv-x="1024" />

    
    <glyph glyph-name="shrink-l" unicode="&#58914;" d="M192.037 608.047h640.124c17.673 0 32 14.327 32 32s-14.327 32-32 32H192.037c-17.673 0-32-14.327-32-32s14.327-32 32-32zM832.161 416.831H438.553c-17.673 0-32-14.327-32-32s14.327-32 32-32h393.608c17.673 0 32 14.327 32 32s-14.327 32-32 32zM832.161 160.19799999999998H192.037c-17.673 0-32-14.327-32-32s14.327-32 32-32h640.124c17.673 0 32 14.327 32 32s-14.327 32-32 32zM319.028 544.406l-160-160 160-160z"  horiz-adv-x="1024" />

    
    <glyph glyph-name="shrink-r" unicode="&#58917;" d="M192.037 608.047h640.124c17.673 0 32 14.327 32 32s-14.327 32-32 32H192.037c-17.673 0-32-14.327-32-32s14.327-32 32-32zM192.028 352.83000000000004h393.608c17.673 0 32 14.327 32 32s-14.327 32-32 32H192.028c-17.673 0-32-14.327-32-32s14.327-32 32-32zM832.161 160.19799999999998H192.037c-17.673 0-32-14.327-32-32s14.327-32 32-32h640.124c17.673 0 32 14.327 32 32s-14.327 32-32 32zM705.162 224.40599999999995l160 160-160 160z"  horiz-adv-x="1024" />

    
    <glyph glyph-name="back" unicode="&#58892;" d="M512-77.82399999999996c-254.976 0-461.824 206.848-461.824 461.824 0 254.976 206.848 461.824 461.824 461.824 254.976 0 461.824-206.848 461.824-461.824s-206.848-461.824-461.824-461.824z m0 865.792c-223.232 0-403.968-180.736-403.968-403.968 0-223.232 180.736-403.968 403.968-403.968 223.232 0 403.968 180.736 403.968 403.968 0 223.232-180.736 403.968-403.968 403.968z m202.24-432.64h-305.664l118.784-118.784c11.264-11.264 11.264-29.696 0-40.96s-29.696-11.264-40.96 0l-163.328 163.328c-7.168 7.168-9.216 16.384-7.68 25.6-1.536 8.704 0.512 18.432 7.68 25.6L486.4 573.44c11.264 11.264 29.696 11.264 40.96 0s11.264-29.696 0-40.96l-118.784-118.784h305.664c15.872 0 28.672-12.8 28.672-28.672 0-16.896-12.8-29.696-28.672-29.696z"  horiz-adv-x="1024" />

    
    <glyph glyph-name="theme" unicode="&#58991;" d="M512 830.6c-327 0-448-285.2-448-445.1s116.3-448 438.5-448c0 0 80.1-1.4 80.1 70.6s-36 49-36 100.8c0 51.9 36 74.9 53.3 74.9 17.3 0 131.1-8.6 194.5 15.9 63.3 24.4 165.6 102.2 165.6 234.7 0 116.7-121 396.2-448 396.2zM238.9 384c-43 0-77.8 34.8-77.8 77.8s34.8 77.8 77.8 77.8 77.8-34.8 77.8-77.8c-0.1-43-34.9-77.8-77.8-77.8zM385.6 576.5c-43 0-77.8 34.8-77.8 77.8s34.8 77.8 77.8 77.8c42.9 0 77.8-34.8 77.8-77.8s-34.8-77.8-77.8-77.8zM635.1 576.5c-42.9 0-77.8 34.8-77.8 77.8s34.8 77.8 77.8 77.8c42.9 0 77.8-34.8 77.8-77.8s-34.8-77.8-77.8-77.8zM783.2 384c-42.9 0-77.8 34.8-77.8 77.8s34.8 77.8 77.8 77.8 77.8-34.8 77.8-77.8c0.1-43-34.8-77.8-77.8-77.8z"  horiz-adv-x="1024" />

    
    <glyph glyph-name="admin" unicode="&#58886;" d="M288.0768 606.4844800000001c1.18272 91.46368 77.85984 166.18496 169.3184 165.01248 91.47392-1.1776 166.18496-77.85472 165.00736-169.3184-1.17248-91.46368-77.83936-166.19008-169.30816-165.01248C361.6256 438.34368 286.89408 515.01568 288.0768 606.4844800000001L288.0768 606.4844800000001zM173.1584 11.750400000000013c-28.38528 0.36352-50.176 22.73792-49.81248 51.11296 2.16064 167.16288 133.25312 304.27648 297.47712 317.93664l0 0 0 0c9.45664-0.11776 18.9184-0.24064 31.53408-0.4096l3.15904-0.04096c37.888 2.6624 91.63264 11.43808 120.34048 36.29568l12.72832 9.31328c54.20544 43.46368 86.54336 106.1376 87.43936 175.52384 1.5872 123.00288-98.04288 225.23904-224.19456 226.8672-116.7104 1.50016-218.94144-98.13504-220.5184-221.14304-0.90112-69.38624 29.83424-132.86912 82.88256-177.72032l15.6416-9.67168-15.8464-6.0928c-145.8176-54.90176-245.38624-192.43008-247.41888-350.1312-0.768-59.91936 45.93664-107.8528 105.86112-108.62592l287.01696-3.69664c9.46688-0.12288 25.35424 9.1392 25.6 28.06784 0.2816 22.07744-15.40608 28.58496-24.86784 28.70784L173.1584 11.750400000000013 173.1584 11.750400000000013zM903.3728 128.53247999999996c-47.39072-5.70368-82.57536-43.10016-83.22048-93.56288-0.12288-9.46176 2.8672-22.12864 5.92896-28.4672l-41.27232-21.5552c-3.11808 3.2-9.344 9.59488-15.57504 15.9744-18.75968 12.85632-34.45248 19.37408-53.376 19.61984-15.77472 0.2048-34.78016-5.86752-53.86752-18.23744-6.38464-6.21568-12.73856-9.30304-15.9744-15.56992l-37.5552 22.57408c3.23072 6.26176 6.54336 18.84672 6.66624 28.30336 0.60416 47.31392-33.55648 88.75008-80.77824 95.67744 0.08192 6.2976-2.91328 18.9696-2.75456 31.58528 0.12288 9.45664 3.44064 22.03648 3.56352 31.488 47.39072 5.70368 82.56512 43.10528 83.22048 93.568 0.11776 9.46688-2.8672 22.1184-5.9392 28.47232l41.28768 21.5552c3.11296-3.20512 9.33888-9.58976 15.60576-12.8256 18.75968-12.86144 34.45248-19.36896 50.2272-19.57376 15.76448-0.2048 31.616 5.90336 50.70336 18.26816 6.38464 6.22592 12.73344 9.2928 15.92832 12.42112l40.71936-22.61504c-3.23072-6.26688-6.54848-18.8416-6.67136-28.30336-0.6144-47.3088 33.5616-88.7552 80.78336-95.68256-0.08192-6.2976 2.90304-18.95424 2.7392-31.56992C906.81344 150.56895999999995 903.49568 137.98911999999996 903.3728 128.53247999999996L903.3728 128.53247999999996zM948.54656 206.81727999999998c-2.944 15.80032-15.39584 28.58496-28.02176 28.7488l-3.15392 0.03584c-28.38016 0.36864-50.17088 22.73792-49.81248 51.11296 0.08192 6.30784 3.3536 15.72352 3.39456 18.8928 6.51776 15.67744 0.45056 34.688-12.05248 44.31872l-56.35584 32.27136c-3.15904 0.04096-9.46688 0.12288-15.77472 0.2048-9.46688 0.12288-22.1184-2.87744-28.55424-12.24704-6.38976-6.23104-25.51808-21.77024-38.12352-21.6064-12.62592 0.15872-31.34464 16.18432-40.71936 22.62016-6.23104 6.37952-15.61088 12.81536-28.23168 12.9792-6.30784 0.08192-9.46176 0.12288-12.65664-3.00032l0 0-60.32896-30.77632 0 0c-12.73856-9.28256-19.29216-28.12928-13.18912-43.99104 0 0 3.04128-9.50272 2.91328-18.95424-0.3584-28.39552-22.72256-50.18624-51.11808-49.82272l-3.1488 0.04096c-12.61568 0.15872-25.40032-12.288-28.75904-28.01152-0.04096-3.15904-6.62016-25.1648-6.90688-47.23712-0.24576-18.92352 2.57536-44.20096 5.6832-47.39072 2.94912-15.81056 15.42144-28.57984 28.03712-28.74368l3.13856-0.04096c28.39552-0.36864 50.19648-22.73792 49.82272-51.1232-0.08192-6.2976-3.3536-15.72864-3.4048-18.88768-6.50752-15.68256-0.44032-34.69312 12.05248-44.3136l56.3712-32.27136c6.34368 3.072 9.49248 3.02592 15.80544 2.94912 9.46688-0.11776 22.11328 2.87232 28.54912 12.25728 6.38464 6.21568 25.55392 24.89856 41.32352 24.69888 12.61056-0.16384 34.49344-16.20992 40.67328-25.75872 6.23104-6.39488 15.616-12.82048 28.24192-12.98432 6.29248-0.08192 9.4464-0.12288 15.7952 2.95424l57.18528 30.81216 0 0c12.73856 9.2928 19.29216 28.13952 13.18912 43.99104 0 0-3.04128 9.50272-2.91328 18.95424 0.36352 28.39552 22.72256 50.19136 51.11296 49.82272l3.1488-0.03584c12.61568-0.16384 25.3952 12.288 28.75904 28.02688 0 0 6.6304 25.14944 6.912 47.22688C951.34208 178.37568 948.5056 203.66336 948.54656 206.81727999999998L948.54656 206.81727999999998zM717.16352 121.46687999999995c-22.07744 0.2816-40.75008 19.45088-40.46848 41.53344 0.28672 22.07744 19.45088 40.7552 41.5232 40.46848 22.07744-0.2816 40.76032-19.45088 40.4736-41.5232C758.41024 139.8528 739.24608 121.18016 717.16352 121.46687999999995L717.16352 121.46687999999995zM734.56128 247.42912c-59.77088 13.3888-114.06336-39.53664-102.272-102.78912 5.86752-34.77504 33.88416-63.52384 68.49536-70.28224 59.77088-13.39392 114.06848 39.53152 102.23104 99.62496C797.19424 211.91168000000005 769.17248 240.67071999999996 734.56128 247.42912L734.56128 247.42912z"  horiz-adv-x="1024" />

    
    <glyph glyph-name="hook" unicode="&#58894;" d="M569.6 396.8h12.8v-70.4h-12.8zM371.2 377.6H384v-38.4h-12.8zM384 390.4h12.8v-57.6H384zM364.8 339.20000000000005v38.4c-6.4 0-12.8-6.4-12.8-19.2 0-12.8 6.4-12.8 12.8-19.2zM595.2 377.6h12.8v-38.4h-12.8zM582.4 390.4h12.8v-57.6h-12.8zM614.4 377.6v-38.4c6.4 0 12.8 6.4 12.8 19.2 0 12.8-6.4 19.2-12.8 19.2zM396.8 422.4V697.6l19.2 96L256 640v-51.2l96-166.4zM576 422.4h44.8l96 166.4V640L556.8 793.6 576 697.6zM428.8 224s25.6-12.8 32 0c6.4 19.2-38.4 19.2-44.8 12.8 0 0-25.6-57.6-44.8-96-12.8-32 6.4-38.4 57.6 83.2zM576 204.79999999999995c-32 12.8-44.8 70.4-44.8 70.4H435.2v-25.6s19.2-6.4 25.6-12.8c6.4-6.4 0-25.6-12.8-25.6 6.4-12.8 19.2-32 32-38.4 32-25.6 83.2-25.6 89.6-83.2 6.4-51.2-38.4-89.6-83.2-83.2-38.4 0-64 25.6-70.4 44.8-6.4 19.2-6.4 57.6-19.2 76.8l-6.4 6.4s-6.4-25.6-25.6-19.2c-12.8 6.4 0 32 0 32-12.8 6.4-25.6 6.4-32 6.4-19.2 0-6.4-12.8-6.4-19.2 6.4-6.4 32-44.8 19.2-89.6-6.4-19.2 25.6-166.4 179.2-172.8 64 0 185.6 19.2 192 147.2 12.8 134.4-115.2 172.8-140.8 185.6zM563.2 428.8l-153.6 128v-83.2l153.6-128zM563.2 556.8L409.6 691.2v-83.2l153.6-128zM563.2 691.2l-128 108.8-12.8-64 140.8-121.6zM518.4 883.2h-64l-12.8-38.4 108.8-83.2zM537.6 281.6l12.8 19.2-140.8 121.6v-25.6h-12.8v-70.4h12.8v-12.8l25.6-32h51.2z"  horiz-adv-x="1024" />

    
    <glyph glyph-name="full" unicode="&#58896;" d="M227.71 735.963l128.007 0.514c18.928-0.475 36.487 12.637 39.356 34.986v24.135c-0.474 18.965-16.114 34.643-35.043 35.06l-244.422-1.443c-0.363 0.039-0.61 0.17-0.932 0.17l-17.14 0.382c-9.466 0.228-17.94-3.478-23.983-9.615-6.14-6.1-8.402-14.615-8.153-24.135l1.825-17.18c0-0.341-1.273-0.57-1.273-0.95l0.95-245.622c0.418-18.928 16.059-30.291 35.042-30.71h25.466c18.927-0.418 33.96 16.058 33.54 34.967l-1.064 133.575 168.526-165.826c18.317-18.357 47.964-18.357 66.283 0 18.263 18.358 18.263 48.024 0 66.4L227.71 735.9639999999999z m728.2-743.8l-0.988 241.84c-0.475 18.91-16.116 30.233-35.043 30.65l-24.077 0.04c-18.872 0.437-33.96-16.095-33.485-35.024l1.065-130.707-168.526 166.909c-18.318 18.359-47.926 18.359-66.247 0-18.298-18.358-18.298-48.022 0-66.38l168.505-166.776-127.836-0.513c-18.929 0.42-36.449-11.21-39.358-33.56v-24.133c0.476-18.967 16.175-34.644 35.044-35.12l241.289 1.463c0.38 0 0.607-0.151 0.968-0.151l17.103-0.418c9.465-0.228 17.996 3.477 24.04 9.636 6.177 6.043 8.38 14.594 8.19 24.115l-1.881 17.14c-0.036 0.419 1.237 0.664 1.237 0.989zM394.638 265.87c-18.303 18.359-47.967 18.359-66.267 0L159.828 100.048l1.083 131.503c0.418 18.967-14.612 35.497-33.503 35.023h-25.466C82.96 266.1 67.32 254.83000000000004 66.9 235.86400000000003l-0.99-243.643c0-0.342 1.274-0.572 1.274-0.952l-1.825-17.142c-0.21-9.52 1.996-18.072 8.134-24.115 6.043-6.156 14.576-9.862 23.984-9.634l17.142 0.418c0.342 0 0.568 0.151 0.95 0.151l244.405-1.463c18.928 0.476 34.587 16.153 35.042 35.118v24.135c-2.85 22.347-20.408 33.977-39.299 33.56l-129.472 0.417 168.393 166.778c18.28 18.3 18.28 48.021 0 66.379z m234.068 238.4c18.318-18.358 47.926-18.358 66.244 0l168.527 166.853-1.084-134.603c-0.455-18.909 14.633-35.442 33.503-35.023h24.076c18.93 0.475 34.569 11.799 35.044 30.71l0.968 245.678c0 0.38-1.254 0.609-1.254 0.95l1.862 17.18c0.19 9.52-2.014 18.035-8.19 24.134-6.044 6.138-14.576 9.844-24.021 9.579l-17.104-0.381c-0.38 0-0.609-0.134-0.987-0.19l-244.788 1.463c-18.927-0.438-34.566-16.116-35.04-35.081l-0.059-24.135c2.908-22.385 20.488-35.442 39.356-35.023l129.89-0.512-166.89-165.295c-18.355-18.281-18.355-47.947-0.053-66.305z"  horiz-adv-x="1024" />

    
    <glyph glyph-name="vip" unicode="&#58935;" d="M920.465823 292.34767899999997s-62.217722-172.070886-65.782279-184.654852c-4.644726 16.634599-65.782278 184.654852-65.782278 184.654852h-43.800844l90.680169-238.33924h37.69789l90.248101 238.33924h-43.260759zM850.632911 426.504641c-65.458228 0-124.651477-26.842194-167.156118-70.102953-11.125738 4.698734-22.413502 8.803376-33.971308 12.313924 77.286076 37.643882 130.646414 116.820253 130.646414 208.580591 0 128.162025-103.858228 232.12827-232.074262 232.12827-10.693671 0-21.063291-0.972152-31.270886-2.376372 17.120675-10.693671 33.161181-23.061603 47.365401-37.157806 99.267511-8.155274 177.309705-91.274262 177.309705-192.540084 0-100.995781-77.50211-183.736709-176.283545-192.432068 1.404219-3.348523 2.106329-6.967089 2.106329-10.639662 0-1.296203-0.540084-2.43038-0.702109-3.564557 17.120675-9.883544 33.593249-20.793249 49.093671-33.161181 14.204219-3.186498 28.192405-7.345148 41.802531-12.529958-11.449789-16.634599-20.685232-34.619409-27.490295-53.63038-41.370464 45.043038-94.514768 79.176371-154.626161 97.431224 77.340084 37.643882 130.700422 116.820253 130.700422 208.58059 0 128.162025-103.912236 232.12827-232.12827 232.12827S141.82616 705.620253 141.82616 577.404219c0-91.706329 53.360338-170.8827 130.700422-208.58059-134.58903-40.884388-234.180591-161.107173-245.25232-306.227848-0.972152-2.376371-1.512236-4.914768-1.512237-7.453165 0-10.693671 8.64135-19.335021 19.335021-19.335021 10.693671 0 19.335021 8.64135 19.335022 19.335021h0.972151c10.04557 161.863291 144.094515 290.133333 308.496203 290.133333 99.591561 0 188.111392-47.149367 244.604219-120.276793-1.512236-10.855696-2.268354-21.765401-2.268354-32.729114 0-129.404219 104.938397-234.342616 234.342616-234.342616 129.404219 0 234.342616 104.938397 234.342616 234.342616 0.054008 129.350211-104.83038 234.234599-234.288608 234.234599zM180.550211 577.296203c0 106.774684 86.575527 193.404219 193.404219 193.404219 106.774684 0 193.350211-86.629536 193.350211-193.404219 0-106.8827-86.629536-193.458228-193.350211-193.458228-106.774684-0.054008-193.404219 86.575527-193.404219 193.458228zM851.01097-8.641349999999989c-110.7173 0-200.479325 89.762025-200.479324 200.479325s89.762025 200.479325 200.479324 200.479325 200.479325-89.762025 200.479325-200.479325-89.762025-200.479325-200.479325-200.479325z"  horiz-adv-x="1111" />

    
    <glyph glyph-name="users" unicode="&#58958;" d="M547.487 404.536c55.648 42.051 92.172 108.582 92.172 184.227 0 127.363-102.102 230.605-228.063 230.605-125.957 0-228.055-103.242-228.055-230.605 0-74.352 35.395-139.766 89.418-181.938-115.941-52.43-197.738-168.023-201.879-303.93 0-20.984 17.008-38 37.996-38 20.984 0 38 17.016 38 38 9.43 135.813 118.422 250.391 253.746 256.359l20.543-0.102c85.426-3.242 160.488-46.523 206.816-112.633h86.486c-35.391 71.033-95.414 125.392-167.18 158.017zM414.804 436.669l-8.172 0.098c-81.676 2.438-147.41 69.344-147.41 152.512 0 84.723 67.93 153.406 151.719 153.406s151.695-68.684 151.695-153.406c0-83.329-65.938-150.407-147.832-152.61zM655.776 736.259c64.891-17.398 133.836-75.891 133.836-146.98 0-53.93-37.148-108.469-79.039-135.098l-0.047-0.043c-19.789-7.629-33.984-26.672-33.984-49.359l-0.078-4.938c0-28.195 22.461-50.719 49.93-52.492 0 0 1.398-0.203 1.539-0.391 44.219-20.922 86.281-56.875 119.094-100.438h94.266c-34.337 67.813-90.829 121.329-159.204 153.938l-0.297 3.063c52.531 43.242 84.813 111.18 84.813 185.242 0 121.105-92.688 218.813-210.055 228.258l-2.695-0.094c-21.461-1.16-38.813-18.191-38.813-39.938 0-22.492 18.234-40.73 40.734-40.73zM642.683 189.33299999999997h256v-51.2h-256v51.2zM642.683 86.93299999999999h256v-51.2h-256v51.2zM642.683-15.466999999999985h256v-51.2h-256v51.2z"  horiz-adv-x="1024" />

    
    <glyph glyph-name="database" unicode="&#59334;" d="M892.20096 115.32799999999997l0.4608 1.26976 79.02208 33.21856v102.83008l-79.20128 33.54112-0.4608 1.32096a270.88384 270.88384 0 0 1-7.23968 18.00192v10.9312l29.85984 73.89696-29.85984 29.91616V725.38624c0 105.12384-209.3824 160.09216-416.21504 160.09216-206.83776 0-416.24576-54.96832-416.24576-160.09216v-672.36864c0-105.07776 209.40288-160.08192 416.24576-160.08192 42.3424 0 84.74112 2.36032 125.47072 6.93248l5.69856-13.36832v-3.97824h104.54016l33.7408 79.21152 1.26976 0.47104c8.85248 3.22048 15.81056 6.08256 21.8624 8.98048l1.25952 0.5888 79.7184-32.20992 72.64256 72.81152-29.98784 74.27072v10.33216a307.47136 307.47136 0 0 1 7.41888 18.35008zM468.56704 821.44256c227.86048 0 352.18432-63.45728 352.18432-96.05632 0-32.59392-124.31872-96.05632-352.18432-96.05632-227.88096 0-352.2048 63.4624-352.2048 96.05632 0.00512 32.59904 124.32384 96.05632 352.2048 96.05632zM116.36736 635.92448c77.76256-46.61248 215.5264-70.62016 352.2048-70.62016 136.67328 0 274.432 24.00768 352.18432 70.62016v-134.66112c0-15.61088-28.63104-38.28224-83.38944-57.68704l-33.408 76.49792h-102.4l-34.39104-79.3856-1.30048-0.46592a249.50784 249.50784 0 0 1-20.50048-8.45312l-1.2288-0.60928-80.42496 31.68256L407.65952 406.784c-189.02528 9.97376-291.29216 64.9216-291.29216 94.47936V635.92448z m0-224.128c66.62656-39.936 177.31584-63.26272 293.61664-69.12512l12.91264-32.75776-0.59904-1.18784a262.0416 262.0416 0 0 1-8.45312-20.57216l-0.49664-1.23904-79.51872-34.58048v-63.03232c-141.62432 18.18112-217.46688 62.37184-217.46688 87.83872v134.656z m0-358.77888v134.67136c65.82272-39.45984 174.64832-62.69952 289.41312-68.92032l7.44448-3.23072 0.47104-1.29024c2.25792-6.31808 4.9152-12.78976 8.43264-20.45952l0.60928-1.2288-31.66208-80.41984 54.9376-54.9376c-213.504 4.00896-329.64608 64.29696-329.64608 95.81568z m393.088-95.3088l34.54464 13.59872 1.20832-0.5888a208.77312 208.77312 0 0 1 21.14048-8.64768l1.34144-0.4608 0.11776-0.29184c-18.49856-1.66912-37.94944-2.89792-58.35264-3.6096z m318.55616 49.8432l-69.05856 27.88864-12.06784-6.6816c-11.47904-6.43072-24.51968-11.78112-38.77888-15.8976l-13.17888-3.8912-29.09184-68.54144h-25.93792l-29.2608 68.55168-13.19936 3.8912c-13.69088 4.02944-26.55232 9.26208-38.21056 15.5392l-11.93984 6.5024-69.5808-27.50976-18.52416 18.51904 27.35616 69.5808-6.49728 11.9296a185.26208 185.26208 0 0 0-15.34464 37.5296l-3.90656 13.02016-68.74624 29.952v26.24l68.74624 29.952 3.90656 13.09184c4.12672 13.60896 9.28768 26.22976 15.32928 37.50912l6.50752 11.95008-27.35104 69.59104 18.50368 18.46784 69.58592-27.4688 11.95008 6.48192a183.16288 183.16288 0 0 0 37.51936 15.36l13.05088 3.8656 29.97248 68.75648h26.24l29.96224-68.75136 13.05088-3.87584c13.89056-4.14208 26.69056-9.44128 38.0416-15.744l12.07808-6.67136 69.05856 27.87328 18.37056-18.3808-27.86816-69.04832 6.67136-12.0576c6.44096-11.49952 11.78112-24.54016 15.90784-38.79936l3.91168-13.18912 68.5312-29.24032v-25.96864l-68.7104-28.84096-3.87072-13.16864a200.94464 200.94464 0 0 0-15.93856-38.74816l-6.6816-12.08832 27.8784-69.07904-18.38592-18.40128zM651.49952 332.47744c-72.75008 0-131.93216-59.18208-131.93216-131.92192s59.18208-131.92192 131.93216-131.92192 131.9424 59.18208 131.9424 131.92192-59.19232 131.92192-131.9424 131.92192z m0-196.3264c-35.51232 0-64.39936 28.89216-64.39936 64.4096 0 35.51232 28.89216 64.39936 64.39936 64.39936 35.52256 0 64.41984-28.89216 64.41984-64.39936 0-35.52256-28.89728-64.4096-64.41984-64.4096z"  horiz-adv-x="1024" />

    
    <glyph glyph-name="gongneng" unicode="&#58929;" d="M269.486359 839.164628C152.203198 839.164628 56.594544 744.639699 56.594544 626.272813c0-117.283161 95.608655-212.891816 212.891815-212.891816S482.378175 508.989652 482.378175 626.272813c0 118.366886-94.404516 212.891816-212.891816 212.891815m0-365.456255c-84.289746 0-153.648166 68.274694-153.648165 153.648165 0 84.289746 68.274694 153.648166 153.648165 153.648166s153.648166-68.274694 153.648166-153.648166-68.274694-153.648166-153.648166-153.648165m484.906868-60.327376c117.283161 0 212.891816 95.608655 212.891815 212.891816S871.676388 839.164628 754.393227 839.164628 541.501411 743.555974 541.501411 626.272813c0.120414-117.283161 94.524929-212.891816 212.891816-212.891816m0 366.539981c84.289746 0 153.648166-68.274694 153.648165-153.648165 0-84.289746-68.274694-153.648166-153.648165-153.648166S600.745061 540.899341 600.745061 626.272813 669.019755 779.920978 754.393227 779.920978M269.486359 354.257761C152.203198 354.257761 56.594544 258.649106 56.594544 141.365945s95.608655-212.891816 212.891815-212.891815 212.891816 95.608655 212.891816 212.891815-94.404516 212.891816-212.891816 212.891816m0-365.456256c-84.289746 0-153.648166 68.274694-153.648165 153.648166S184.233302 296.21825 269.486359 296.21825s153.648166-68.274694 153.648166-153.648165-68.274694-153.768579-153.648166-153.76858m272.135466 152.56444c0-117.283161 95.608655-212.891816 212.891816-212.891815s212.891816 95.608655 212.891815 212.891815S871.796802 354.257761 754.513641 354.257761c-118.4873 0-212.891816-95.608655-212.891816-212.891816m0 0z"  horiz-adv-x="1024" />

    
    <glyph glyph-name="sys" unicode="&#58921;" d="M364.999 767.1469999999999H158.28c-52.383 0-95-42.617-95-95v-206.719c0-52.383 42.617-95 95-95h206.719c52.383 0 95 42.617 95 95V672.1469999999999c0 52.384-42.617 95-95 95zM364.999 333.61H158.28c-52.383 0-95-42.617-95-95v-206.719c0-52.383 42.617-95 95-95h206.719c52.383 0 95 42.617 95 95V238.61c0 52.383-42.617 95-95 95zM943.066 665.963L796.895 812.135c-17.943 17.943-41.8 27.825-67.175 27.825-25.376 0-49.232-9.881-67.175-27.825L516.372 665.963c-37.041-37.041-37.041-97.31 0-134.35l146.172-146.172c17.943-17.943 41.8-27.825 67.176-27.825 25.375 0 49.231 9.882 67.175 27.825l146.172 146.172c17.943 17.943 27.825 41.8 27.825 67.175s-9.882 49.233-27.826 67.175z m-21.212-113.137L775.682 406.654c-12.277-12.277-28.601-19.038-45.962-19.038-17.362 0-33.686 6.761-45.963 19.038L537.585 552.826c-25.343 25.344-25.343 66.581 0 91.924l146.173 146.172c12.276 12.277 28.6 19.038 45.962 19.038 17.361 0 33.685-6.761 45.962-19.038L921.854 644.75c12.276-12.277 19.038-28.6 19.038-45.962s-6.762-33.685-19.038-45.962zM798.887 333.61H592.168c-52.383 0-95-42.617-95-95v-206.719c0-52.383 42.617-95 95-95h206.719c52.383 0 95 42.617 95 95V238.61c0 52.383-42.617 95-95 95z"  horiz-adv-x="1024" />

    
    <glyph glyph-name="set" unicode="&#58887;" d="M368.8 422.4c61.3 3.2 113.7-44.6 116.9-106.8 3.3-62.2-43.8-115.2-105.1-118.4C319.3 194 267 241.79999999999995 263.7 304c-3.3 62.2 43.8 115.2 105.1 118.4z m285.7-164.9c17 0.9 29.9 19.9 29 37.2l-3.3 62.5c-0.9 17.2-15.6 34.8-32.7 33.9l-54-2.8c-5.7 10.9-14 33.6-24.1 49.6l36.3 38.5c11.4 12.9 10.5 32.6-2.2 44.2l-45.6 41.9c-12.7 11.6-31.6 10.6-43-2.3l-35.1-40.6c-16.8 8.5-39.9 14.6-51.2 19.2l-2.9 54.8c-0.9 17.3-19.7 30.3-36.7 29.4l-61.6-3.2c-17-0.9-34.3-15.8-33.4-33.1l2.9-54.8c-10.7-5.7-33.1-14.2-48.9-24.4l-38 36.9c-12.7 11.6-32.2 10.7-43.6-2.1l-41.2-46.2c-11.4-12.8-10.4-32 2.3-43.6l40.1-35.6c-8.4-17-14.4-40.5-18.9-51.9l-54-2.8c-17-0.9-29.9-19.9-29-37.2l3.3-62.5c0.9-17.2 15.6-34.8 32.7-33.9l54 2.8c5.7-10.9 14-33.6 24.1-49.6l-36.3-38.5c-11.4-12.9-10.5-32.6 2.2-44.2l45.6-41.9c12.7-11.6 31.6-10.6 43 2.3l35 40.6c16.7-8.5 39.9-14.6 51.2-19.2l2.9-54.8c0.9-17.3 19.7-30.3 36.7-29.4l61.6 3.2c17 0.9 34.3 15.8 33.4 33.1l-2.9 54.8c10.7 5.7 33.1 14.2 48.9 24.4l38-36.9c12.7-11.6 32.2-10.7 43.6 2.1l41.2 46.2c11.4 12.8 10.4 32-2.3 43.6l-40.1 35.6c8.4 17 14.4 40.5 18.9 51.9l54.1 2.8zM741.7 725c33.7-3.5 59.8-35.1 56.2-69-3.6-33.9-34.9-59.4-69.4-55.8-33.7 3.5-59.8 35.1-56.2 69 3.7 33.9 35 59.4 69.4 55.8z m162-25.4l-27.4 61.5c-1.8 3.8-6.6 5.8-9.7 3.9l-43.7-12c-7.9 7.3-17.3 13.4-26.7 19.5l-1.9 43.7c0.3 2.9-4.3 7-7.9 7.3l-66.9 7c-5 0.5-8.8-2-9.2-5.5l-10.9-42.3c-10.5-4-21-7.9-30.2-13.5L628.9 790c-4.8 2.7-8.5 0.9-10.1-0.4L580 735.8c-2.5-3.4-2.8-6.2 0.4-10.2l31.9-31.6c-2-4.9-2.5-9.9-3.2-16.3-0.7-6.4 0.2-11.6-0.3-16.6l-37.7-22.8c-3.9-3.2-5.9-8.1-4.6-9.7l27.4-61.5c2.5-3.9 5.9-5.7 11-4.8l41.6 12.3c9.3-7.5 17.2-14.8 26.7-19.5l2.4-45.9c-0.3-2.9 4.3-7 7.2-7.3l66.9-7c3.6-0.4 8.9 2.7 8 7.8l10.9 42.3c10.5 4 21 7.9 30.2 13.5l40.3-20.9c4.8-2.7 8.5-0.9 10.1 0.4l39.6 54.5c2.5 3.4 2.8 6.2-0.4 10.2l-31.9 31.6c2 4.9 2.5 9.9 3.2 16.3 0.7 6.4-0.2 11.6 0.3 16.6l41.2 22.5c3 1.1 3.5 6.2 2.5 9.9z m-82.4-570.2c26.6-2.8 47.4-27.5 44.5-54.5-2.8-27-28.3-46.8-54.9-44-26.6 2.8-47.4 27.5-44.5 54.5 2.8 27 28.3 46.8 54.9 44z m136.1-27.3c2.4 0.9 2.9 5.6 2 8.1l-22.6 52.2c-0.9 2.5-5.4 4.1-7.8 3.2l-37.3-10.3c-6.3 6.6-15.2 11.1-22.8 16.6l-2 36.9c0.4 3.5-4 6.3-6.3 6.6l-56.6 6c-4.6 0.5-7.3-2.8-7.6-5.1l-9.6-35.7c-9.7-3.7-18.2-6.4-25.7-11.5l-34.3 17.8c-3.3 1.5-6.9 0.7-8.2-0.3l-32.9-46.3c-2.6-2.1-2.8-4.4-0.9-8.2l27.5-27.8c-1.6-4.6-2-8.1-2.6-13.9-0.6-5.9 0.2-9.5-0.3-14.2L677 57.10000000000002c-2.6-2.1-4.2-6.7-3.2-8l23.8-51.1c3.2-2.7 5.4-4.1 10.2-3.4l35 10.5c8.6-6.8 14.9-13.4 22.8-16.6l1.7-39.3c-0.4-3.5 4-6.3 6.3-6.6l56.6-6c3.5-0.4 7.2 1.6 6.5 6.4l9.6 35.7c9.7 3.7 18.2 6.4 25.7 11.5l34.3-17.8c3.3-1.5 6.9-0.7 8.2 0.3l32.9 46.3c1.4 2.2 1.8 5.7-0.3 8.3l-27.5 27.8c1.6 4.6 2 8.1 2.6 13.9 0.6 5.9-0.2 9.5 0.3 14.2l34.9 18.9z"  horiz-adv-x="1024" />

    
    <glyph glyph-name="suo" unicode="&#59033;" d="M791.272727 477.090909h-23.272727v69.818182c0 141.963636-116.363636 256-256 256-141.963636 0-256-114.036364-256-256v-69.818182h-23.272727c-51.2 0-93.090909-41.890909-93.090909-93.090909v-325.818182c0-51.2 41.890909-93.090909 93.090909-93.090909h558.545454c51.2 0 93.090909 41.890909 93.090909 93.090909V384c0 51.2-41.890909 93.090909-93.090909 93.090909z m-488.727272 69.818182c0 116.363636 93.090909 209.454545 209.454545 209.454545s209.454545-93.090909 209.454545-209.454545v-69.818182H302.545455v69.818182z m535.272727-488.727273c0-25.6-20.945455-46.545455-46.545455-46.545454H232.727273c-25.6 0-46.545455 20.945455-46.545455 46.545454V384c0 25.6 20.945455 46.545455 46.545455 46.545455h558.545454c25.6 0 46.545455-20.945455 46.545455-46.545455v-325.818182zM512 302.54545499999995c-25.6 0-46.545455-20.945455-46.545455-46.545455 0-16.290909 9.309091-32.581818 23.272728-39.563636v-53.527273c0-11.636364 9.309091-23.272727 23.272727-23.272727s23.272727 11.636364 23.272727 23.272727v53.527273c13.963636 6.981818 23.272727 23.272727 23.272728 39.563636 0 25.6-20.945455 46.545455-46.545455 46.545455z"  horiz-adv-x="1024" />

    
    <glyph glyph-name="plugins" unicode="&#58906;" d="M102.984883-127.39810699999998c-27.506495 0-53.026744 10.593311-71.805796 29.733498a96.182449 96.182449 0 0 0-30.335391 71.745606v123.508376l0.84265 6.259684c3.852113 19.74208 14.74637 37.859049 30.515959 50.739552 10.6535 7.222712 22.9923 11.135014 35.571856 11.135014 14.80656 0 29.131605-5.296655 40.447188-14.80656 2.949274-1.62511 6.440252-3.430788 10.111797-4.815141a34.307882 34.307882 0 0 0 7.162522-2.106624 100.817022 100.817022 0 0 1 88.177277-2.648328c13.542585 5.597602 25.520249 13.602774 35.632046 23.895139a107.979545 107.979545 0 0 1 32.321636 78.366426c0.300946 15.167695-2.588138 30.094634-8.546876 44.118732a105.93311 105.93311 0 0 1-23.77476 35.812614 104.24781 104.24781 0 0 1-35.571857 23.83495 107.257274 107.257274 0 0 1-87.575384-1.083407 60.971728 60.971728 0 0 1-9.630282-3.611356l-26.784224-12.880503c-10.232175-4.634574-21.186622-6.981955-32.321637-6.981955-20.584729 2.046435-35.030153 10.171986-43.938165 24.6776a95.941692 95.941692 0 0 0-12.579556 48.211602V513.136072a103.826486 103.826486 0 0 0 102.502321 102.68289h116.105097l-0.782461 8.306119a187.670135 187.670135 0 0 0-12.459178 68.555575 196.517957 196.517957 0 0 0 16.311291 79.810968 207.652971 207.652971 0 0 0 42.975137 64.04138 212.468113 212.468113 0 0 0 63.620055 43.396462 199.226474 199.226474 0 0 0 157.093987 0c23.83495-10.593311 45.20214-25.159114 63.620055-43.396462 18.478105-18.718862 32.923529-40.326809 43.035326-64.04138a205.847293 205.847293 0 0 0 2.106625-154.204902l49.957091-2.46776c27.265738 0 53.448069-11.135014 71.805796-30.39558 18.89943-19.019808 29.55293-45.382707 29.372362-72.28731v-89.802386l8.546876 1.083407c22.751543 9.02839 46.706871 13.783342 71.44466 13.783342 26.362899 0 52.184095-5.356845 76.500558-16.010345 23.654382-9.991418 44.780815-24.196085 63.138541-42.433433 18.116969-18.357726 32.442015-39.785106 42.674191-63.379299 10.352554-24.557221 15.649209-50.558984 15.528831-77.222829 0.240757-26.904602-5.055898-53.147123-15.64921-77.583965-10.232175-23.534003-24.557221-44.419679-42.553812-62.536649a193.327926 193.327926 0 0 0-63.19873-42.914947 193.448304 193.448304 0 0 0-147.945218-1.6853l-5.898548 2.46776-2.588139-82.760242c0.300946-26.784224-10.472932-53.086934-29.733498-71.805795a98.168695 98.168695 0 0 0-69.879739-29.733498h-543.56927z m-41.289838 229.561864c1.083407-0.84265 0.300946-3.852113-0.481514-6.801387l-0.601892-121.281373a38.521131 38.521131 0 0 1 12.218421-29.071416 41.350026 41.350026 0 0 1 29.372362-12.579557h541.94416a39.123024 39.123024 0 0 1 29.191795 12.459178 39.905484 39.905484 0 0 1 12.218421 29.191795v138.375125a30.094634 30.094634 0 0 0 29.914066 29.673308c7.042144 0 13.843531-2.46776 19.380944-6.801387 12.579557-10.834068 26.603656-19.380944 41.951919-25.640627a130.069006 130.069006 0 0 1 101.358726 1.56492c16.43167 6.921766 31.358608 17.033563 44.540057 29.733498 12.579557 12.940692 22.570975 27.867631 29.793687 44.419679 7.102334 17.033563 10.6535 35.090343 10.533122 53.628637 0 18.538294-3.671545 36.354317-10.834068 53.38788a136.990772 136.990772 0 0 1-29.853876 44.901193 136.990772 136.990772 0 0 1-44.299301 29.853877 131.332981 131.332981 0 0 1-101.479104 1.564921 148.306354 148.306354 0 0 1-41.831541-25.038735 29.974255 29.974255 0 0 0-49.475577 22.811732V513.136072a41.831541 41.831541 0 0 1-12.3388 30.275202 38.701699 38.701699 0 0 1-28.228766 12.398989h-105.210839a30.215012 30.215012 0 0 0-29.853876 30.154823 30.335391 30.335391 0 0 0 7.042144 18.959619c20.825486 24.316464 31.900312 55.494504 31.358608 87.575383a137.231529 137.231529 0 0 1-11.255393 55.976019 141.926292 141.926292 0 0 1-30.576148 45.442896 152.459413 152.459413 0 0 1-45.14195 30.877094 137.231529 137.231529 0 0 1-108.641627 0 151.676953 151.676953 0 0 1-45.14195-30.877094 142.648563 142.648563 0 0 1-41.831541-101.298536c-0.120379-16.130724 2.708517-31.960501 8.486687-47.007818 5.597602-14.80656 13.482396-28.830659 23.413625-41.350026a30.094634 30.094634 0 0 0-23.534004-48.51255h-171.178275a39.303591 39.303591 0 0 1-29.733498-12.760124 40.567566 40.567566 0 0 1-12.699935-29.853877v-115.924528a53.568448 53.568448 0 0 1 2.347381-15.528831l3.791924-1.083407-0.782461 6.319873c10.6535 3.069653 17.033563 6.018927 23.594193 9.269148l14.80656 6.139305a170.756951 170.756951 0 0 0 66.268383 13.301828c45.743843 0 88.779169-17.695645 121.100805-49.896903a174.368307 174.368307 0 0 0 36.534885-189.415623 170.094869 170.094869 0 0 0-91.066361-90.404279 164.918592 164.918592 0 0 0-65.606301-13.662964c-24.075707 0-48.45236 5.537413-70.301064 15.889967a114.058661 114.058661 0 0 0-24.497031 11.315582 28.469523 28.469523 0 0 1-13.482396 5.958738l-6.801387 0.963028 5.597601-4.213249z"  horiz-adv-x="1024" />

    
    <glyph glyph-name="module" unicode="&#59095;" d="M388.285 436.647946H186.084141c-60.066753 0-108.979714-48.810633-108.979714-108.877385v-269.839912c0-60.066753 48.912961-108.877386 108.979714-108.877386h202.098531c60.066753 0 108.979714 48.810633 108.979714 108.877386V327.77056100000004c0.102328 60.066753-48.810633 108.877386-108.877386 108.877385z m26.093735-367.461177c0-20.465674-16.679524-37.145198-37.247527-37.145198H197.237933c-20.568002 0-37.247527 16.679524-37.247526 37.145198V316.616768c0 20.465674 16.679524 37.145198 37.247526 37.145199h179.790947c20.568002 0 37.247527-16.679524 37.247527-37.145199v-247.429999zM837.915859 818.844409h-202.098531c-60.066753 0-108.979714-48.810633-108.979714-108.877386v-269.839912c0-60.066753 48.912961-108.877386 108.979714-108.877386h202.098531c60.066753 0 108.979714 48.810633 108.979714 108.877386v269.839912c0 60.066753-48.912961 108.877386-108.979714 108.877386z m26.093734-367.461177c0-20.465674-16.679524-37.145198-37.247526-37.145199h-179.790947c-20.568002 0-37.247527 16.679524-37.247527 37.145199V698.813231c0 20.465674 16.679524 37.145198 37.247527 37.145198h179.790947c20.568002 0 37.247527-16.679524 37.247526-37.145198v-247.429999zM388.285 818.844409H186.084141c-60.066753 0-108.979714-48.810633-108.979714-108.877386v-135.073449c0-59.964425 48.912961-108.877386 108.979714-108.877385h202.098531c60.066753 0 108.979714 48.810633 108.979714 108.877385v135.073449c0.102328 60.066753-48.810633 108.877386-108.877386 108.877386z m26.093735-232.387729c0-20.568002-16.679524-37.349855-37.247527-37.349855H197.237933c-20.568002 0-37.247527 16.781853-37.247526 37.349855v112.151894c0 20.568002 16.679524 37.349855 37.247526 37.349855h179.790947c20.568002 0 37.247527-16.781853 37.247527-37.349855v-112.151894zM837.915859 301.77915499999995h-202.098531c-60.066753 0-108.979714-48.810633-108.979714-108.877386v-135.073449c0-59.964425 48.912961-108.877386 108.979714-108.877386h202.098531c60.066753 0 108.979714 48.810633 108.979714 108.877386v135.073449c0 60.066753-48.912961 108.877386-108.979714 108.877386z m26.093734-187.056261c0-3.172179-1.22794-6.139702-3.479164-8.288598-2.251224-2.251224-5.218747-3.479165-8.288598-3.479165h-12.688718c-3.683821 0-7.879285-3.069851-9.004897-6.651344v-0.102328l-6.651344-16.270211-0.102328-0.204657c-1.739582-3.274508-1.023284-8.390926 1.637254-10.949135l9.004896-9.004897c2.251224-2.251224 3.479165-5.218747 3.479165-8.288598 0-3.172179-1.22794-6.139702-3.479165-8.390926l-15.246927-15.246927c-2.251224-2.251224-5.218747-3.479165-8.390926-3.479165-3.172179 0-6.139702 1.22794-8.390927 3.479165l-8.902568 8.902568c-1.534926 1.534926-4.195463 2.558209-6.856001 2.558209-1.534926 0-2.967523-0.306985-4.093134-0.920955l-0.204657-0.102329-16.270211-6.651344h-0.102328c-3.479165-1.125612-6.651344-5.321075-6.651344-9.004896v-12.58639c0-3.172179-1.22794-6.139702-3.479165-8.390926-2.251224-2.251224-5.218747-3.479165-8.288598-3.479165h-21.488958c-3.172179 0-6.139702 1.22794-8.288598 3.479165-2.251224 2.251224-3.479165 5.218747-3.479164 8.288598v12.586389c0 3.683821-3.069851 7.879285-6.651344 9.004897h-0.102329l-16.270211 6.651344-0.204656 0.102328c-1.125612 0.61397-2.558209 0.920955-4.093135 0.920956-2.660538 0-5.218747-1.023284-6.856001-2.558209l-9.004896-9.004897c-2.251224-2.251224-5.218747-3.479165-8.288598-3.479165-3.172179 0-6.139702 1.22794-8.288598 3.479165l-15.246928 15.246927c-2.251224 2.251224-3.479165 5.218747-3.479164 8.288598 0 3.172179 1.22794 6.139702 3.479164 8.390926l9.004897 9.004897c2.558209 2.558209 3.376836 7.674628 1.637254 10.949136l-0.102328 0.102328-6.651344 16.270211v0.102328c-1.125612 3.479165-5.321075 6.651344-9.004897 6.651344h-12.688718c-3.172179 0-6.139702 1.22794-8.288598 3.479165-2.251224 2.251224-3.479165 5.218747-3.479165 8.288598v21.488958c0 3.172179 1.22794 6.139702 3.479165 8.288598 2.251224 2.251224 5.218747 3.479165 8.288598 3.479164h12.688718c3.683821 0 7.879285 3.069851 9.004897 6.651344v0.102329l6.651344 16.27021 0.102328 0.204657c1.739582 3.274508 1.023284 8.390926-1.637254 10.949136l-9.004897 9.004896c-2.251224 2.251224-3.479165 5.218747-3.479164 8.390927 0 3.172179 1.22794 6.139702 3.479164 8.288598l15.246928 15.246927c2.251224 2.251224 5.218747 3.479165 8.288598 3.479164 3.172179 0 6.139702-1.22794 8.288598-3.479164l9.004896-9.004897c1.534926-1.534926 4.195463-2.558209 6.856001-2.558209 1.534926 0 2.967523 0.306985 4.093135 0.920955l0.204656 0.102329 16.270211 6.651344h0.102329c3.479165 1.125612 6.549016 5.321075 6.549015 9.004896v12.688718c0 3.172179 1.22794 6.139702 3.479165 8.288598 2.251224 2.251224 5.218747 3.479165 8.288598 3.479165h21.488958c3.172179 0 6.139702-1.22794 8.288598-3.479165 2.251224-2.251224 3.479165-5.218747 3.479164-8.288598v-12.688718c0-3.683821 3.069851-7.879285 6.651344-9.004896h0.102329l16.270211-6.651344 0.204656-0.102329c1.125612-0.61397 2.558209-0.920955 4.093135-0.920955 2.660538 0 5.321075 1.023284 6.856001 2.558209l9.004896 9.004897c2.251224 2.251224 5.218747 3.479165 8.288598 3.479164 3.172179 0 6.139702-1.22794 8.288598-3.479164l15.246928-15.246927c2.251224-2.251224 3.479165-5.218747 3.479164-8.390927 0-3.172179-1.22794-6.139702-3.479164-8.288598l-9.004897-8.902568c-2.558209-2.660538-3.376836-7.776956-1.637254-10.949135l0.102328-0.204657 6.651345-16.270211v-0.102328c1.125612-3.479165 5.321075-6.651344 9.004896-6.651344h12.688718c3.172179 0 6.139702-1.22794 8.288598-3.479165 2.251224-2.251224 3.479165-5.218747 3.479165-8.288598v-21.284301zM736.815429 166.91036299999996c-22.819227 0-41.44299-18.623763-41.44299-41.44299s18.623763-41.44299 41.44299-41.44299 41.44299 18.623763 41.44299 41.44299-18.623763 41.44299-41.44299 41.44299z"  horiz-adv-x="1024" />

    
    <glyph glyph-name="code" unicode="&#58915;" d="M347.4688 609.28512l-187.10528-238.88896 185.27744-216.64256s23.79776-30.8736-7.36256-55.74144c-30.73024-24.5248-58.19904 9.65632-58.19904 9.65632l-205.6192 243.59424s-15.52896 20.93056 0 43.06944c15.52896 22.13888 207.05792 261.48352 207.05792 261.48352s24.85248 25.96352 55.60832 5.2736c28.98944-19.5072 10.3424-51.80416 10.3424-51.80416zM403.3792 45.09184000000005l131.34336 692.8896s9.8304 35.7376 47.1552 29.14816c40.8064-7.20384 32.84992-48.86528 32.84992-48.86528L482.5856 23.76703999999995s-8.00768-44.11904-55.22944-31.04768c-35.21536 9.74848-23.97696 52.37248-23.97696 52.37248zM678.36928 609.28512l187.10528-238.88896-185.27744-216.64256s-23.79776-30.8736 7.36256-55.74144c30.73024-24.5248 58.19904 9.65632 58.19904 9.65632l205.6192 243.59424s15.52896 20.93056 0 43.06944c-15.52896 22.13888-207.05792 261.48352-207.05792 261.48352s-24.85248 25.96352-55.60832 5.2736c-28.99456-19.5072-10.3424-51.80416-10.3424-51.80416z"  horiz-adv-x="1024" />

    
    <glyph glyph-name="syslog" unicode="&#58888;" d="M490.0864 611.6864c0 14.1824-13.9264 25.6-31.232 25.6h-298.496c-17.2032 0-31.232-11.4176-31.232-25.6 0-14.1312 14.0288-25.6 31.232-25.6h298.496c17.3056 0 31.232 11.4688 31.232 25.6zM311.6544 425.984c0 14.1312-13.9264 25.6-31.232 25.6H160.4608c-17.2544 0-31.232-11.4688-31.232-25.6 0-14.1824 13.9776-25.6 31.232-25.6h120.064c17.2544 0 31.232 11.4176 31.232 25.6z m-151.2448-160.1536c-17.2544 0-31.232-11.4688-31.232-25.6s13.9776-25.6 31.232-25.6h85.248c17.2544 0 31.232 11.4688 31.232 25.6s-13.9776 25.6-31.232 25.6H160.4096zM417.3312-25.54880000000003H145.1008c-31.4368 0-56.9856 29.5936-56.9856 65.9968V766.976c0 36.4544 25.6 66.048 56.9856 66.048h572.9792c31.3856 0 56.9344-29.5936 56.9344-66.048v-84.2752a31.232 31.232 0 1 1 62.464 0V766.976c0 70.8608-53.6064 128.512-119.3984 128.512H145.1008C79.2064 895.488 25.7024 837.8368 25.7024 766.976v-726.528c0-70.8096 53.504-128.4096 119.3984-128.4096H417.28a31.232 31.232 0 1 1 0 62.464zM950.1184 257.2288a6.9632 6.9632 0 0 0-4.096 5.12 6.9632 6.9632 0 0 0 2.048 6.3488 24.8832 24.8832 0 0 0 8.9088 6.0416c27.9552 12.4928 43.008 36.7616 40.0896 65.024-2.9184 28.9792-11.5712 53.1456-26.5216 73.728-19.6608 27.136-49.7664 35.9424-80.2816 23.1936a32.6144 32.6144 0 0 0-12.6976-2.6112c-2.2528 0-5.7344 2.2528-5.888 4.3008a22.1184 22.1184 0 0 0 1.536 9.6256c2.9696 8.4992 7.424 21.248 4.3008 37.0176-5.0176 24.2176-22.0672 38.0928-30.0544 44.5952-22.528 18.5344-48.8448 24.064-66.6624 26.624a59.8016 59.8016 0 0 1-57.856-22.784 99.5328 99.5328 0 0 1-13.2096-20.8384c-0.8704-2.048-6.0416-8.3456-12.9536-4.1984-2.816 1.6384-4.4544 5.632-7.168 11.4176-12.8 26.624-36.1984 39.936-64.6144 36.6592-31.232-3.6352-56.064-13.1584-75.776-29.0304-22.016-17.7152-30.3616-41.7792-23.9616-67.8912 0.6656-2.8672 1.1776-5.4272 2.048-8.448 0 0 1.024-3.584 1.0752-5.7344 0.1024-1.792 0.512-3.6352-0.512-5.4784-1.024-2.048-3.1744-4.4032-8.192-4.1984a91.392 91.392 0 0 0-17.92 3.9424c-14.0288 3.9424-41.0624 6.4-65.1264-20.992-16.8448-19.3024-23.7056-41.3184-28.16-60.2624-7.8336-32.8704 5.0688-73.4208 43.776-86.8864 0.512-0.3072 5.8368-0.3072 6.6048-6.4 0.3584-3.1232-4.1472-6.9632-11.9808-10.24-27.7504-11.6736-42.3936-36.5056-40.192-68.096 1.8944-26.7776 11.264-51.2512 27.648-72.9088 16.896-22.2208 42.3424-31.5904 69.9904-25.2416 8.192 1.8944 15.5136 3.328 19.968 3.6864a35.9424 35.9424 0 0 0-3.1232-11.1104c-3.1744-8.0896-7.0656-20.48-4.608-35.5328 2.6624-16.64 11.0592-30.6176 25.856-42.752 18.8416-15.36 42.1376-25.5488 71.2192-30.976 34.304-6.4 66.048 10.24 78.336 41.6768 0.6656 1.6384 3.1744 11.6224 9.8816 11.1616 5.4272-0.4096 5.9392-4.7104 9.3696-12.288 11.9296-26.5216 34.6112-41.9328 60.416-41.9328 2.8672 0 5.7856 0.2048 8.8064 0.512a155.136 155.136 0 0 1 67.328 25.6c28.4672 19.4048 38.8096 54.3232 25.088 84.9408-0.6144 1.3312-2.2528 7.3728-0.8192 9.8304 2.56 4.4544 11.9296 0.1024 22.4256-2.56 26.88-6.656 52.7872 1.536 72.5504 23.7056 19.0976 21.6576 25.2928 46.9504 28.3648 64.1536a69.632 69.632 0 0 1-12.0832 55.0912c-9.8816 13.3632-22.9376 20.5824-33.1776 25.3952z m9.5232-77.824c-3.072-17.2032-7.68-28.6208-15.0528-36.864-5.6832-6.5024-8.192-5.888-11.4688-5.0176-16.128 4.096-33.9456 7.3216-53.76 3.84-29.696-5.3248-54.4768-33.024-56.4224-62.8224-1.1264-16.5376 1.024-30.8224 6.912-43.7248 1.9456-4.352-2.304-7.68-3.584-8.4992a103.2192 103.2192 0 0 0-45.1072-16.9984 14.4896 14.4896 0 0 0-3.84 5.632c-9.5232 21.3504-23.9616 36.5056-43.1104 45.1584-25.6 11.4176-52.2752 8.1408-75.3664-9.1136a87.04 87.04 0 0 1-29.2864-37.7856c-0.6144-1.5872-1.536-4.608-9.6768-3.3792-20.5824 3.8912-35.6864 10.0864-47.4112 19.712l-4.9152 4.352 2.048 3.84c4.352 11.1104 8.7552 24.2688 7.936 40.2944a67.072 67.072 0 0 1-57.9584 63.5904 105.9328 105.9328 0 0 1-12.8 0.8192c-12.5952 0-24.064-2.3552-34.8672-4.7616-4.2496-1.0752-4.8128-0.6144-7.1168 2.304a80.0256 80.0256 0 0 0-16.5888 43.52s-0.2048 3.4304 0.256 4.4544a6.7072 6.7072 0 0 0 2.048 2.2016c20.0192 12.4928 38.4 24.5248 48.128 44.288 12.3904 25.2416 9.3696 52.736-8.2944 73.6768-8.5504 10.0352-20.48 22.3744-36.864 28.1088-7.68 2.6624-5.0688 15.2064-5.0688 15.36 4.3008 18.2272 8.96 28.8768 21.1456 37.9392 10.5472-2.9696 23.5008-6.7584 38.8608-5.632 39.8336 2.5088 68.352 29.8496 70.8608 67.0208l1.1776 11.3152-0.768 13.6192c-0.6656 6.656-1.4336 13.2096-0.1024 24.064 11.4688 9.216 26.7264 14.7456 49.152 15.7184 4.4544-9.472 11.008-21.8112 22.4768-32.768 17.3056-16.5888 41.1648-23.4496 65.3824-19.2512 25.3952 4.4544 47.104 20.6848 58.2144 43.3664 1.6896 3.4816 3.9936 7.1168 6.4512 10.1376 18.7904-2.6624 30.6176-6.9632 39.7312-14.4896 2.1504-1.792 8.7552-7.1168 9.1136-7.3216l-2.048-6.656a91.4944 91.4944 0 0 1-5.3248-39.3728c3.328-36.352 34.56-65.9968 70.9632-67.2768a115.712 115.712 0 0 1 44.032 8.0896l3.4304 1.6896 3.1744-4.096c9.1136-12.5952 14.4896-28.16 12.9536-49.4592a96.4608 96.4608 0 0 1-32.1536-22.4256 76.544 76.544 0 0 1 23.296-121.9072 33.28 33.28 0 0 0 10.3424-6.5536c0.7168-1.024 1.792-2.4576 0.8704-7.8848zM700.416 410.9312c-82.432-1.0752-146.7392-65.4848-146.5344-146.5344 0.1536-39.4752 15.6672-76.544 43.9296-104.3968a144.896 144.896 0 0 1 102.5024-42.24h1.536c81.92 0.8192 147.9168 66.816 147.2512 147.2512a146.0224 146.0224 0 0 1-44.1344 103.936 146.3808 146.3808 0 0 1-104.6016 41.984z m0.768-249.8048c-28.0064-2.4064-52.4288 10.0864-71.68 29.184a101.0688 101.0688 0 0 0-30.464 72.2432c-0.1536 55.8592 44.6464 100.2496 101.9904 100.9664h1.3312c26.624 0 51.7632-10.24 70.912-29.0304 19.456-19.1488 30.3616-44.6464 30.5664-71.936 0.512-55.3472-45.568-100.864-102.656-101.376z"  horiz-adv-x="1024" />

    
    <glyph glyph-name="default" unicode="&#59159;" d="M551.264 659.744l-10.336 10.208-5.6-5.696 6.656-2.848c-2.496-6.24-5.408-12.864-8.704-19.904l17.984 18.24z m0 0M567.712 635.808l3.168-6.624 5.6 5.696-10.336 10.176-17.92-18.144c7.072 3.072 13.568 6.016 19.488 8.896z m0 0M544.672 623.328l-5.536-5.6 10.336-10.208 15.232 15.456c-5.632-2.656-11.232-5.152-16.8-7.424l-3.232 7.776z m0 0M530.368 638.592l-8.8 3.712c3.232 5.792 6.144 11.456 8.768 16.96l-16.416-16.64 10.336-10.208 6.112 6.176z m0 0M575.968 767.616H130.24l767.264-767.264V446.08L575.968 767.616z m128.352-247.52l23.456-2.24c0.288-19.2 0.256-33.44-0.096-42.688l-26.208 2.208c1.024 10.592 1.952 24.832 2.848 42.72z m-282.56 63.2c9.824 3.904 20.064 8.896 30.72 14.976l6.72-13.856c-10.912-5.664-21.312-10.56-31.232-14.72l-6.208 13.6z m23.456-26.144c5.792 8.064 11.168 16.768 16.128 26.144l12.064-7.2a311.36 311.36 0 0 0-15.232-26.752l-12.96 7.808z m21.024-15.264c4.608 9.536 8.704 18.944 12.224 28.256l12.672-5.792c-3.712-10.624-7.392-20.192-11.104-28.64l-13.792 6.176z m94.24-70.688c-7.744-1.472-16.704-3.488-26.88-6.048-1.664 21.152 6.528 45.248 24.608 72.288-22.944-16.992-47.712-25.568-74.368-25.632a207.68 207.68 0 0 1 2.336 26.304c1.888-0.096 3.744-0.224 5.568-0.256 1.792 6.592 3.2 13.28 4.192 20l12.224-3.488a2299.68 2299.68 0 0 1-60.256 50.656l12.416 15.872 27.648-25.216 7.04 7.136-23.552 23.264 11.712 11.84 23.552-23.264 6.336 6.432-22.176 21.888 49.408 50.016 59.232-58.464-49.408-50.048-22.176 21.888-6.336-6.4 23.808-23.52-11.712-11.84-23.808 23.52-6.336-6.432 27.584-24.256a161.376 161.376 0 0 1-13.312-11.488l-8.576 7.456a131.424 131.424 0 0 0-2.528-14.56c19.68 2.56 41.184 13.952 64.544 34.24l-13.504 13.312 16.288 16.512 14.368-14.176a2622.08 2622.08 0 0 1 33.344 33.28l16.64-16.416c-14.592-14.784-25.76-25.856-33.472-33.152l25.216-24.864-16.288-16.512-23.136 22.848c-22.112-29.344-32.192-56.896-30.24-82.72z m89.184 117.312a311.36 311.36 0 0 0-7.712-31.008l-20.32 6.624c4.192 11.296 7.584 21.728 10.176 31.264l17.856-6.88z m-41.152-169.472a23.744 23.744 0 0 1 16.096 7.232l41.568 42.112-12.864 12.704 16.16 16.384 29.632-29.248-44.544-45.12 28.064-1.056a140.32 140.32 0 0 1-10.016-20.48c-22.56 0.192-44.576-0.96-66.112-3.392l2.016 20.864z m158.752 1.696c-33.76-40.928-46.112-78.208-37.056-111.872-12-2.4-22.464-4.672-31.392-6.816-2.624 30.944 3.84 58.272 19.328 81.952a152.416 152.416 0 0 0-83.584-18.24c2.784 9.696 4.864 19.712 6.208 29.984 26.848-2.624 48.544 0.512 65.12 9.44 16.544 8.896 40.576 29.568 72.064 61.92l18.784-18.528c-10.496-10.4-20.288-19.648-29.472-27.84z m0 0"  horiz-adv-x="1024" />

    
    <glyph glyph-name="store" unicode="&#58891;" d="M393.39 306.65a18.48 18.48 0 0 0-18.48 18.48V502.87a18.48 18.48 0 0 0 37 0v-177.74a18.48 18.48 0 0 0-18.52-18.48zM628.88 306.65a18.48 18.48 0 0 0-18.48 18.48V502.87a18.48 18.48 0 1 0 37 0v-177.74a18.48 18.48 0 0 0-18.52-18.48zM836.71-10H187.37a18.48 18.48 0 0 0-18.48 18.48V237.40999999999997a18.48 18.48 0 0 0 37 0v-210.46h612.34V237.40999999999997a18.48 18.48 0 0 0 37 0v-228.94A18.48 18.48 0 0 0 836.71-10zM746.86 262.28c-43.62 0-84.72 13.07-117.43 37.08-32.71-24-73.81-37.08-117.43-37.08s-84.72 13.07-117.43 37.08c-32.71-24-73.81-37.08-117.43-37.08-99.92 0-181.21 69.93-181.21 155.88v2.42a18.23 18.23 0 0 0 0.54 5.57l64.44 252.52A131.87 131.87 0 0 0 288.81 778h446.43a131.86 131.86 0 0 0 127.87-99.39l64.32-252.48a17.71 17.71 0 0 0 0.57-4c0-1.32 0.07-2.66 0.07-4 0-85.92-81.29-155.85-181.21-155.85z m-117.43 79.25a18.44 18.44 0 0 0 12.21-4.61c27.61-24.3 65-37.68 105.22-37.68 79.54 0 144.26 53.35 144.26 118.92v0.93L827.31 669.5a95 95 0 0 1-92.07 71.56H288.81a95 95 0 0 1-92.06-71.52l-63.87-251.38c0-65.57 64.72-118.92 144.26-118.92 40.24 0 77.61 13.38 105.22 37.68a18.47 18.47 0 0 0 24.42 0c27.61-24.3 65-37.68 105.22-37.68s77.61 13.38 105.22 37.68a18.44 18.44 0 0 0 12.21 4.61z"  horiz-adv-x="1024" />

    


  </font>
</defs>
</svg>
